Важное объявление!
У Нас Все раздачи мультитрекерные, при нуле пиров в релизах, можете смело вставать на закачку!
 
Автор Сообщение

HUNTER

Стаж:
4 года 4 месяца
Сообщений:
56733

Репутация: 101

[+] [-]
Вне форума [Профиль] [ЛС]

Мой маленький пони: Девочки из Эквестрии - Игры Дружбы / My Little Pony: Equestria Girls - Friendship Games
Страна: США
Жанр: Приключения, семейный, фэнтези
Продолжительность: 01:12:22
Год выпуска: 2015
Перевод 1: Любительский (многоголосый закадровый) (FlutixTV)
Перевод 2: Одноголосый закадровый (Soviet Voice)
Перевод 3: Профессиональный дублированный (телеканал Плюсплюс) (украинский)
Русские субтитры: есть
Режиссёр: Джэйсон Тиссен / Jayson Thiessen, Иши Руделл / Ishi Rudell
Роли озвучивали: Тара Стронг, Ребекка Шойкет, Эшли Болл, Андреа Либман, Табита Сен-Жермен, Кэти Уэслак и другие
Описание: Студенты Кантерлота готовятся к Играм Дружбы — спортивному мероприятию, проводимому между командами Вондерколт и Шедоуболт раз в четыре года. Игры предназначены для того, чтобы гармонизировать две школы, но студенты из школы Кантерлота возмущаются на учеников Кристальной Академии за их неспортивное поведения и жажду победы. Селестия и Луна предупредили Сансет Шиммер и ее друзей, что магия в играх запрещена.
Предыдущие и альтернативные раздачи
Рейтинг:
Качество: BDRip 720p
Формат: MKV
Видео: AVC, 1280x720 (16:9), 23.976 fps, ~2862 kbps
Аудио 1 Rus: AC3, 48 kHz, 6 ch, 448 kbps (FlutixTV)
Аудио 2 Rus: AC3, 48 kHz, 2 ch, 192 kbps (Soviet Voice)
Аудио 3 Ukr: AC3, 48 kHz, 2 ch, 192 kbps (телеканал Плюсплюс)
Аудио 4 Eng: AC3, 48 kHz, 2 ch, 192 kbps (Commentary)
Аудио 5 Eng: AC3, 48 kHz, 6 ch, 640 kbps (Original)
Субтитры 1 Rus: (TheDoctor Team) (ass)
Субтитры 2 Eng: (PGS) (sup)

Скриншоты

Дополнительная информация

Рип и дубляж телеканала Плюсплюс любезно предоставлен ALEKS KV.
Огромное спасибо всем предоставившим свою озвучку: jbond_92 за озвучку группы FlutixTV и Сергею Вейсову за озвучку Soviet Voice. Песни пока не озвучил никто. В раздаче также присутствует оригинальная аудиодорожка, комментарий создателей и русские и английские субтитры, а дополнительные материалы можно найти в отдельной раздаче.

Подробные технические данные

ОбщееУникальный идентификатор : 251963311536193986129056394398935259387 (0xBD8E5E6055B649329FCC2898E27F98FB)Полное имя : D:\Mults\mlp.eg.friendship.games.2015.bdrip.720p.mkvФормат : MatroskaВерсия формата : Version 4 / Version 2Размер файла : 2,33 ГбайтПродолжительность : 1 ч. 12 м.Общий поток : 4617 Кбит/секДата кодирования : UTC 2015-11-17 14:29:13Программа кодирования : mkvmerge v8.4.0 ('A better way to fly') 32bitБиблиотека кодирования : libebml v1.3.1 + libmatroska v1.4.2DURATION : 01:12:01.442000000NUMBER_OF_FRAMES : 2858NUMBER_OF_BYTES : 15337301_STATISTICS_WRITING_APP : mkvmerge v8.4.0 ('A better way to fly') 32bit_STATISTICS_WRITING_DATE_UTC : 2015-11-17 14:29:13_STATISTICS_TAGS : BPS DURATION NUMBER_OF_FRAMES NUMBER_OF_BYTES
ВидеоИдентификатор : 1Формат : AVCФормат/Информация : Advanced Video CodecПрофиль формата : High@L4.1Параметр CABAC формата : ДаПараметр ReFrames формата : 9 кадровИдентификатор кодека : V_MPEG4/ISO/AVCПродолжительность : 1 ч. 12 м.Битрейт : 2862 Кбит/секШирина : 1280 пикселейВысота : 720 пикселейСоотношение сторон : 16:9Режим частоты кадров : ПостоянныйЧастота кадров : 23,976 кадра/секЦветовое пространство : YUVСубдискретизация насыщенности : 4:2:0Битовая глубина : 8 битТип развёртки : ПрогрессивнаяБит/(Пиксели*Кадры) : 0.130Размер потока : 1,45 Гбайт (62%)Библиотека кодирования : x264 core 148 r2597 e86f3a1Настройки программы : cabac=1 / ref=9 / deblock=1:-2:-1 / analyse=0x3:0x113 / me=tesa / subme=11 / psy=1 / psy_rd=1.00:0.00 / mixed_ref=1 / me_range=32 / chroma_me=1 / trellis=2 / 8x8dct=1 / cqm=0 / deadzone=21,11 / fast_pskip=0 / chroma_qp_offset=-2 / threads=12 / lookahead_threads=3 / sliced_threads=0 / nr=0 / decimate=1 / interlaced=0 / bluray_compat=0 / constrained_intra=0 / bframes=14 / b_pyramid=2 / b_adapt=2 / b_bias=0 / direct=3 / weightb=1 / open_gop=0 / weightp=2 / keyint=240 / keyint_min=23 / scenecut=40 / intra_refresh=0 / rc_lookahead=60 / rc=crf / mbtree=1 / crf=14.5 / qcomp=0.60 / qpmin=0 / qpmax=69 / qpstep=4 / vbv_maxrate=62500 / vbv_bufsize=78125 / crf_max=0.0 / nal_hrd=none / filler=0 / ip_ratio=1.40 / aq=1:1.00Язык : EnglishDefault : ДаForced : НетDURATION : 01:12:21.212000000NUMBER_OF_FRAMES : 104085NUMBER_OF_BYTES : 1585974950_STATISTICS_WRITING_APP : mkvmerge v8.4.0 ('A better way to fly') 32bit_STATISTICS_WRITING_DATE_UTC : 2015-11-17 14:29:13_STATISTICS_TAGS : BPS DURATION NUMBER_OF_FRAMES NUMBER_OF_BYTES
Аудио #1Идентификатор : 2Формат : AC-3Формат/Информация : Audio Coding 3Расширение режима : CM (complete main)Параметр Endianness формата : BigИдентификатор кодека : A_AC3Продолжительность : 1 ч. 12 м.Вид битрейта : ПостоянныйБитрейт : 448 Кбит/секКаналы : 6 каналовРасположение каналов : Front: L C R, Side: L R, LFEЧастота : 48,0 КГцБитовая глубина : 16 битМетод сжатия : С потерямиРазмер потока : 232 Мбайт (10%)Заголовок : FlutixTVЯзык : RussianDefault : ДаForced : Нет
Аудио #2Идентификатор : 3Формат : AC-3Формат/Информация : Audio Coding 3Расширение режима : CM (complete main)Параметр Endianness формата : BigИдентификатор кодека : A_AC3Продолжительность : 1 ч. 12 м.Вид битрейта : ПостоянныйБитрейт : 192 Кбит/секКаналы : 2 каналаРасположение каналов : Front: L RЧастота : 48,0 КГцБитовая глубина : 16 битМетод сжатия : С потерямиРазмер потока : 99,4 Мбайт (4%)Заголовок : Soviet VoiceЯзык : RussianDefault : НетForced : Нет
Аудио #3Идентификатор : 4Формат : AC-3Формат/Информация : Audio Coding 3Расширение режима : CM (complete main)Параметр Endianness формата : BigИдентификатор кодека : A_AC3Продолжительность : 1 ч. 12 м.Вид битрейта : ПостоянныйБитрейт : 192 Кбит/секКаналы : 2 каналаРасположение каналов : Front: L RЧастота : 48,0 КГцБитовая глубина : 16 битМетод сжатия : С потерямиРазмер потока : 99,4 Мбайт (4%)Заголовок : ПлюсплюсЯзык : UkrainianDefault : НетForced : Нет
Аудио #4Идентификатор : 5Формат : AC-3Формат/Информация : Audio Coding 3Расширение режима : CM (complete main)Параметр Endianness формата : BigИдентификатор кодека : A_AC3Продолжительность : 1 ч. 12 м.Вид битрейта : ПостоянныйБитрейт : 192 Кбит/секКаналы : 2 каналаРасположение каналов : Front: L RЧастота : 48,0 КГцБитовая глубина : 16 битМетод сжатия : С потерямиРазмер потока : 99,4 Мбайт (4%)Заголовок : CommentaryЯзык : EnglishDefault : НетForced : Нет
Аудио #5Идентификатор : 6Формат : AC-3Формат/Информация : Audio Coding 3Расширение режима : CM (complete main)Параметр Endianness формата : BigИдентификатор кодека : A_AC3Продолжительность : 1 ч. 12 м.Вид битрейта : ПостоянныйБитрейт : 640 Кбит/секКаналы : 6 каналовРасположение каналов : Front: L C R, Side: L R, LFEЧастота : 48,0 КГцБитовая глубина : 16 битМетод сжатия : С потерямиРазмер потока : 331 Мбайт (14%)Заголовок : OriginalЯзык : EnglishDefault : НетForced : Нет
Текст #1Идентификатор : 7Формат : ASSИдентификатор кодека : S_TEXT/ASSИдентификатор кодека/Информация : Advanced Sub Station AlphaМетод сжатия : Без потерьЗаголовок : TheDoctor TeamЯзык : RussianDefault : НетForced : Нет
Текст #2Идентификатор : 8Формат : PGSРежим смешивания : zlibИдентификатор кодека : S_HDMV/PGSИдентификатор кодека/Информация : The same subtitle format used on BDs/HD-DVDsЗаголовок : PGSЯзык : EnglishDefault : НетForced : Нет

_________________
Показать сообщения:    

Текущее время: Сегодня 20:53

Часовой пояс: GMT



Вы не можете начинать темы
Вы не можете отвечать на сообщения
Вы не можете редактировать свои сообщения
Вы не можете удалять свои сообщения
Вы не можете голосовать в опросах
Вы не можете прикреплять файлы к сообщениям
Вы не можете скачивать файлы