Важное объявление!
У Нас Все раздачи мультитрекерные, при нуле пиров в релизах, можете смело вставать на закачку!
 
Автор Сообщение

HUNTER

Стаж:
4 года 4 месяца
Сообщений:
56798

Репутация: 101

[+] [-]
Вне форума [Профиль] [ЛС]

Воспоминания обо мне / Memories of Me
Страна: США
Студия: Metro-Goldwyn-Mayer (MGM)
Жанр: комедия
Год выпуска: 1988
Продолжительность: 01:38:59
Перевод: Профессиональный (двухголосый закадровый) НТВ+
Cубтитры: нет
Оригинальная аудиодорожка: английский
Режиссер: Генри Уинклер / Henry Winkler
В ролях: Билли Кристал, Алан Кинг, ДжоБет Уильямс, Джэнет Кэрролл, Дэвид Эйкройд, Фил Фондакаро, Роберт Пасторелли
Описание: У нью-йоркского врача (Кристал) случается сердечный приступ. Он понимает, что должен пересмотреть все свои дела и поступки, и в первую очередь отношения с отцом. Трогательная комедия о двух людях, которые должны преодолеть прошлое и вновь обрести любовь друг к другу. (М. Иванов)

IMDB
Тип релиза: HDTV 1080i
Контейнер: MKV
Видео: AVC 1920x1080 (16:9) 25.0fps Bit rate 6829Kbps
Аудио 1: MP2 48.0KHz 2ch 192 Kbps rus dvo
Аудио 2: AC3 48.0KHz 2ch 192 Kbps eng

MediaInfo

Общее
Уникальный идентификатор : 227353392553725944576351113092601551277 (0xAB0AABB0E147FCDEB1F38893048119AD)
Полное имя : E:\torrent\Memories of Me_HDTV1080i.mkv
Формат : Matroska
Версия формата : Version 4 / Version 2
Размер файла : 5,09 Гбайт
Продолжительность : 1 ч. 38 м.
Общий поток : 7359 Кбит/сек
Дата кодирования : UTC 2014-01-21 07:13:06
Программа кодирования : mkvmerge v6.7.0 ('Back to the Ground') 32bit built on Jan 8 2014 15:03:17
Библиотека кодирования : libebml v1.3.0 + libmatroska v1.4.1
Видео
Идентификатор : 1
Формат : AVC
Формат/Информация : Advanced Video Codec
Профиль формата : High@L4.0
Параметр CABAC формата : Да
Параметр ReFrames формата : 3 кадра
Параметр GOP формата : M=4, N=32
Идентификатор кодека : V_MPEG4/ISO/AVC
Продолжительность : 1 ч. 38 м.
Битрейт : 6829 Кбит/сек
Ширина : 1920 пикселей
Высота : 1080 пикселей
Соотношение сторон : 16:9
Режим частоты кадров : Постоянный
Частота кадров : 25,000 кадров/сек
Стандарт вещания : Component
Цветовое пространство : YUV
Субдискретизация насыщенности : 4:2:0
Битовая глубина : 8 бит
Тип развёртки : Чересстрочная
Порядок развёртки : Верхнее поле первое
Бит/(Пиксели*Кадры) : 0.132
Размер потока : 4,72 Гбайт (93%)
Заголовок : Memories of Me_HDTV10870i
Default : Да
Forced : Нет
Основные цвета : BT.709
Характеристики трансфера : BT.709
Коэффициенты матрицы : BT.709
Аудио #1
Идентификатор : 2
Формат : MPEG Audio
Версия формата : Version 1
Профиль формата : Layer 2
Идентификатор кодека : A_MPEG/L2
Идентификатор кодека/Подсказка : MP2
Продолжительность : 1 ч. 38 м.
Вид битрейта : Постоянный
Битрейт : 192 Кбит/сек
Каналы : 2 канала
Частота : 48,0 КГц
Метод сжатия : С потерями
Размер потока : 136 Мбайт (3%)
Заголовок : Memories of Me_MP2_2ch_rus_DVO_NTV+
Язык : Russian
Default : Да
Forced : Нет
Аудио #2
Идентификатор : 3
Формат : AC-3
Формат/Информация : Audio Coding 3
Расширение режима : CM (complete main)
Параметр Endianness формата : Big
Идентификатор кодека : A_AC3
Продолжительность : 1 ч. 38 м.
Вид битрейта : Постоянный
Битрейт : 192 Кбит/сек
Каналы : 2 канала
Расположение каналов : Front: L R
Частота : 48,0 КГц
Битовая глубина : 16 бит
Метод сжатия : С потерями
Размер потока : 136 Мбайт (3%)
Заголовок : Memories of Me_AC3_2ch_original eng
Язык : English
Default : Нет
Forced : Нет

Скриншот с названием фильма

Скриншоты



_________________
Показать сообщения:    

Текущее время: Сегодня 23:35

Часовой пояс: GMT



Вы не можете начинать темы
Вы не можете отвечать на сообщения
Вы не можете редактировать свои сообщения
Вы не можете удалять свои сообщения
Вы не можете голосовать в опросах
Вы не можете прикреплять файлы к сообщениям
Вы не можете скачивать файлы