Важное объявление!
У Нас Все раздачи мультитрекерные, при нуле пиров в релизах, можете смело вставать на закачку!
 
Автор Сообщение

HUNTER

Стаж:
4 года 4 месяца
Сообщений:
56722

Репутация: 101

[+] [-]
Вне форума [Профиль] [ЛС]

Мое лето любви / My Summer of Love
Страна: Великобритания
Студия: Apocalypso Pictures, Film Consortium, The, BBC Films
Жанр: триллер, драма, мелодрама
Год выпуска: 2004
Продолжительность: 01:26:39
Перевод: Профессиональный (двухголосый закадровый)
Cубтитры: английские
Оригинальная аудиодорожка: английский
Режиссер: Павел Павликовский / Pawel Pawlikowski
В ролях: Пэдди Консидайн, Дин Эндрюс, Мишель Бирн, Пол Энтони-Барбер, Линетт Эдвардс, Кэтрин Самнер и др.
Описание: Однажды летом Мона, только что порвавшая со своим парнем, знакомится с Тамсин, приехавшей в провинцию на каникулы. Две противоположности находят в каждой нечто, что неожиданно сближает их. Они проводят вместе страстные, забавные, незабываемые дни! Но могут ли подруги полностью довериться друг другу?...
II Сэмпл II IMDB II
Тип релиза: WEB-DL 720p
Контейнер: MKV
Видео: AVC / 1280x690 / 1.85:1 / 23.976fps / Bit rate 4066Kbps
Аудио 1: AC3 / 48.0 KHz / 6ch. / 384kbps / rus / MVO
Аудио 2: AC3 / 48.0 KHz / 6ch. / 384kbps / eng
Формат субтитров: softsub (SRT)

MediaInfo

Общее
Уникальный идентификатор : 205766003102808720659650682658727122781 (0x9ACD17378AD182BFB4FC352B9F5BD75D)
Полное имя : H:\!_Torrent\My.Summer.of.Love.2004.WEB-DL.720p_by_vedigo.mkv
Формат : Matroska
Версия формата : Version 4 / Version 2
Размер файла : 2,93 Гбайт
Продолжительность : 1 ч. 26 м.
Общий поток : 4836 Кбит/сек
Название фильма : My.Summer.of.Love.2004.WEB-DL.720p_by_vedigo
Дата кодирования : UTC 2016-01-07 00:11:04
Программа кодирования : mkvmerge v8.7.0 ('All of the above') 64bit
Библиотека кодирования : libebml v1.3.3 + libmatroska v1.4.4
Видео
Идентификатор : 1
Формат : AVC
Формат/Информация : Advanced Video Codec
Профиль формата : High@L3.1
Параметр CABAC формата : Нет
Параметр ReFrames формата : 2 кадра
Идентификатор кодека : V_MPEG4/ISO/AVC
Продолжительность : 1 ч. 26 м.
Битрейт : 4066 Кбит/сек
Ширина : 1280 пикселей
Высота : 690 пикселей
Соотношение сторон : 1,85:1
Режим частоты кадров : Постоянный
Частота кадров : 23,976 (23976/1000) кадра/сек
Цветовое пространство : YUV
Субдискретизация насыщенности : 4:2:0
Битовая глубина : 8 бит
Тип развёртки : Прогрессивная
Бит/(Пиксели*Кадры) : 0.192
Размер потока : 2,46 Гбайт (84%)
Заголовок : My.Summer.of.Love.2004.WEB-DL.720p_by_vedigo
Default : Да
Forced : Нет
Цветовой диапазон : Limited
Основные цвета : BT.709
Характеристики трансфера : BT.709
Коэффициенты матрицы : BT.709
Аудио #1
Идентификатор : 2
Формат : AC-3
Формат/Информация : Audio Coding 3
Расширение режима : CM (complete main)
Параметр Endianness формата : Big
Идентификатор кодека : A_AC3
Продолжительность : 1 ч. 26 м.
Вид битрейта : Постоянный
Битрейт : 384 Кбит/сек
Каналы : 6 каналов
Расположение каналов : Front: L C R, Side: L R, LFE
Частота : 48,0 КГц
Частота кадров : 31,250 кадров/сек (1536 spf)
Метод сжатия : С потерями
Размер потока : 238 Мбайт (8%)
Заголовок : DVO
Язык : Russian
Default : Да
Forced : Нет
Аудио #2
Идентификатор : 3
Формат : AC-3
Формат/Информация : Audio Coding 3
Расширение режима : CM (complete main)
Параметр Endianness формата : Big
Идентификатор кодека : A_AC3
Продолжительность : 1 ч. 26 м.
Вид битрейта : Постоянный
Битрейт : 384 Кбит/сек
Каналы : 6 каналов
Расположение каналов : Front: L C R, Side: L R, LFE
Частота : 48,0 КГц
Частота кадров : 31,250 кадров/сек (1536 spf)
Метод сжатия : С потерями
Размер потока : 238 Мбайт (8%)
Заголовок : original
Язык : English
Default : Нет
Forced : Нет
Текст
Идентификатор : 4
Формат : UTF-8
Идентификатор кодека : S_TEXT/UTF8
Идентификатор кодека/Информация : UTF-8 Plain Text
Продолжительность : 1 ч. 23 м.
Битрейт : 50 бит/сек
Count of elements : 824
Размер потока : 30,8 Кбайт (0%)
Заголовок : subtitle eng
Язык : English
Default : Нет
Forced : Нет
Меню
00:00:00.000 : en:Main Titles
00:01:46.000 : en:Meeting Mona Lisa
00:04:49.000 : en:Spiritual Fulfilment
00:09:10.000 : en:"The Swan"
00:14:18.000 : en:Philosophical Views
00:16:37.000 : en:A Different Brother
00:20:44.000 : en:Alarming Distraction
00:24:48.000 : en:Crimes of Passion
00:28:57.000 : en:Up and Running
00:35:03.000 : en:Emotional Outpour
00:37:15.000 : en:Caught in the Moment
00:42:54.000 : en:Cruel Joke
00:47:19.000 : en:Reclaiming the Valley
00:52:44.000 : en:Communing
01:02:11.000 : en:Feeling God
01:09:30.000 : en:Evil Doings
01:16:29.000 : en:Playing a Part
01:24:08.000 : en:End Titles

Скриншоты



_________________
Показать сообщения:    

Текущее время: Сегодня 12:07

Часовой пояс: GMT



Вы не можете начинать темы
Вы не можете отвечать на сообщения
Вы не можете редактировать свои сообщения
Вы не можете удалять свои сообщения
Вы не можете голосовать в опросах
Вы не можете прикреплять файлы к сообщениям
Вы не можете скачивать файлы