Важное объявление!
У Нас Все раздачи мультитрекерные, при нуле пиров в релизах, можете смело вставать на закачку!
 
Автор Сообщение

HUNTER

Стаж:
4 года 4 месяца
Сообщений:
56798

Репутация: 101

[+] [-]
Вне форума [Профиль] [ЛС]

Мифика: Тёмные времена / Mythica: The Darkspore
Страна: США
Студия: Arrowstorm Entertainment
Жанр: фэнтези, боевик, приключения
Год выпуска: 2015
Продолжительность: 01:48:51
Перевод: Профессиональный (многоголосый закадровый)
Cубтитры: английские
Оригинальная аудиодорожка: английский
Режиссер: Энн К. Блэк / Anne K. Black
В ролях: Мелани Стоун, Адам Джонсон, Джейк Стормоен, Никки Поснер, Роки Майерс, Кристофер Робин Миллер, Кевин Сорбо, Роберт Джейн, Larissa Beck, Дэйв Бреснахэн
Описание: Вторая часть трилогии посвящена новым приключениям прекрасной некромантки Марек и ее спутников, столкнувшихся с опасным врагом. На этот раз угроза исходит от Кишкумена – могущественного мага, желающего подчинить себе местные земли.

Тип релиза: BDRip 720p
Контейнер: MKV
Видео: MPEG-4 AVC, 6032 Кбит/с, 1280x720, 23,976 fps
Аудио: Rus, AC3, 192 kb/s (2 ch), 48 kHz
Аудио 2: Eng, AC3, 640 kb/s (6 ch), 48 kHz
Формат субтитров: softsub (SRT)

MediaInfo

Format : Matroska
Format version : Version 4 / Version 2
File size : 5.33 GiB
Duration : 1h 48mn
Overall bit rate : 7 003 Kbps
Movie name : Мифика: Тёмные времена. (Tonik)
Encoded date : UTC 2015-09-10 15:17:12
Writing application : mkvmerge v7.1.0 ('Good Love') 64bit built on Jul 27 2014 13:06:55
Writing library : libebml v1.3.0 + libmatroska v1.4.1
_STATISTICS_WRITING_APP : mkvmerge v7.1.0 ('Good Love') 64bit built on Jul 27 2014 13:06:55
_STATISTICS_WRITING_DATE_UTC : 2015-09-10 15:17:12
_STATISTICS_TAGS : BPS DURATION NUMBER_OF_FRAMES NUMBER_OF_BYTES
DURATION : 01:48:28.224000000
NUMBER_OF_FRAMES : 203382
NUMBER_OF_BYTES : 156197376
Video
ID : 1
Format : AVC
Format/Info : Advanced Video Codec
Format profile : High@L4.1
Format settings, CABAC : Yes
Format settings, ReFrames : 9 frames
Codec ID : V_MPEG4/ISO/AVC
Duration : 1h 48mn
Bit rate : 6 032 Kbps
Width : 1 280 pixels
Height : 720 pixels
Display aspect ratio : 16:9
Frame rate mode : Constant
Frame rate : 23.976 fps
Color space : YUV
Chroma subsampling : 4:2:0
Bit depth : 8 bits
Scan type : Progressive
Bits/(Pixel*Frame) : 0.273
Stream size : 4.59 GiB (86%)
Writing library : x264 core 146 r2538kMod 121396c
Encoding settings : cabac=1 / ref=9 / deblock=1:-3:-3 / analyse=0x3:0x133 / me=umh / subme=10 / psy=1 / fade_compensate=0.00 / psy_rd=0.90:0.00 / mixed_ref=1 / me_range=24 / chroma_me=1 / trellis=2 / 8x8dct=1 / cqm=0 / deadzone=21,11 / fast_pskip=0 / chroma_qp_offset=-2 / threads=12 / lookahead_threads=2 / sliced_threads=0 / nr=0 / decimate=0 / interlaced=0 / bluray_compat=0 / constrained_intra=0 / fgo=0 / bframes=9 / b_pyramid=2 / b_adapt=2 / b_bias=0 / direct=3 / weightb=1 / open_gop=0 / weightp=2 / keyint=250 / keyint_min=23 / scenecut=40 / intra_refresh=0 / rc_lookahead=60 / rc=crf / mbtree=0 / crf=17.0000 / qcomp=0.64 / qpmin=0 / qpmax=69 / qpstep=4 / vbv_maxrate=62500 / vbv_bufsize=78125 / crf_max=0.0 / nal_hrd=none / filler=0 / ip_ratio=1.30 / pb_ratio=1.20 / aq=3:0.70 / zones=30,130,crf=16.3/146,270,crf=16.3/1000,1150,crf=16.3/1753,1780,crf=16.3/2460,2600,crf=16.3/2900,3000,crf=16.3/3030,3050,crf=16.3/3220,3333,crf=16.3/3410,4370,crf=16.3/8456,8543,crf=16.3/13250,13730,crf=16.3/13808,13925,crf=16.3/17135,17333,crf=16.3/17570,18770,crf=16.3/21222,21256,crf=16.3/21730,21938,crf=16.3/37603,38746,crf=16.3/40335,40420,crf=16.3/81685,81790,crf=16.3/89860,89945,crf=16.3/89995,90058,crf=16.3/91790,91850,crf=16.3/110130,110900,crf=16.3/117360,117439,crf=16.3/129450,129486,crf=16.3
Language : English
Default : Yes
Forced : No
Matrix coefficients : BT.709
_STATISTICS_WRITING_APP : mkvmerge v7.1.0 ('Good Love') 64bit built on Jul 27 2014 13:06:55
_STATISTICS_WRITING_DATE_UTC : 2015-09-10 15:17:12
_STATISTICS_TAGS : BPS DURATION NUMBER_OF_FRAMES NUMBER_OF_BYTES
DURATION : 01:48:51.609000000
NUMBER_OF_FRAMES : 156602
NUMBER_OF_BYTES : 5038555444
Audio #1
ID : 2
Format : AC-3
Format/Info : Audio Coding 3
Mode extension : CM (complete main)
Format settings, Endianness : Big
Codec ID : A_AC3
Duration : 1h 48mn
Bit rate mode : Constant
Bit rate : 192 Kbps
Channel(s) : 2 channels
Channel positions : Front: L R
Sampling rate : 48.0 KHz
Bit depth : 16 bits
Compression mode : Lossy
Stream size : 149 MiB (3%)
Language : Russian
Default : Yes
Forced : No
Audio #2
ID : 3
Format : AC-3
Format/Info : Audio Coding 3
Mode extension : CM (complete main)
Format settings, Endianness : Big
Codec ID : A_AC3
Duration : 1h 48mn
Bit rate mode : Constant
Bit rate : 640 Kbps
Channel(s) : 6 channels
Channel positions : Front: L C R, Side: L R, LFE
Sampling rate : 48.0 KHz
Bit depth : 16 bits
Compression mode : Lossy
Stream size : 498 MiB (9%)
Language : English
Default : No
Forced : No
Text
ID : 4
Format : UTF-8
Codec ID : S_TEXT/UTF8
Codec ID/Info : UTF-8 Plain Text
Language : English
Default : No
Forced : No
Menu
00:00:00.000 : en:00:00:00.000
00:09:58.890 : en:00:09:58.890
00:19:41.263 : en:00:19:41.263
00:30:12.686 : en:00:30:12.686
00:40:11.284 : en:00:40:11.284
00:49:48.736 : en:00:49:48.736
01:00:34.881 : en:01:00:34.881
01:10:26.889 : en:01:10:26.889
01:21:19.333 : en:01:21:19.333
01:31:27.035 : en:01:31:27.35
01:39:37.513 : en:01:39:37.513

Скриншоты


_________________
Показать сообщения:    

Текущее время: Сегодня 04:21

Часовой пояс: GMT



Вы не можете начинать темы
Вы не можете отвечать на сообщения
Вы не можете редактировать свои сообщения
Вы не можете удалять свои сообщения
Вы не можете голосовать в опросах
Вы не можете прикреплять файлы к сообщениям
Вы не можете скачивать файлы