Важное объявление!
У Нас Все раздачи мультитрекерные, при нуле пиров в релизах, можете смело вставать на закачку!
 
Автор Сообщение

HUNTER

Стаж:
4 года 4 месяца
Сообщений:
56722

Репутация: 101

[+] [-]
Вне форума [Профиль] [ЛС]

Мистериум. Тьма в бутылкеFlaskepost fra P / A Conspiracy of Faith
Страна: Дания, Германия, Швеция, Норвегия
Жанр: триллер, драма
Год выпуска: 2016
Продолжительность: 01:51:29
-
Перевод: Любительский (многоголосый закадровый) GreenРай Studio
Cубтитры: русские (Grabomir), английские, норвежские, шведские, датские [Forced, SDH]
Оригинальная аудиодорожка: датский
-
Режиссер: Ганс Петтер Моланд / Hans Petter Moland
В ролях: Николай Ли Каас, Фарес Фарес, Пол Сверре Валхейм Хаген, Якоб Ульрик Ломанн, Джохэнн Луиз Шмидт, Якоб Офтебро, Сигне Анастассиа Маннов, Сёрен Пильмарк, Михаэль Броструп
-
Описание: Выброшенная на берег моря бутылка с леденящим душу посланием, написанным восемь лет назад, привлекает внимание особого отдела полиции Копенгагена. За расследование берутся комиссар Карл Мёрк и его помощник. Они выходят на след убийцы-психопата и раскрывают жуткую историю похищенных детей, об исчезновении которых никто не заявлял...
[img]https://rating.kinopoisk.ru/843300.gif[/img]
Тип релиза: BDRemux 1080p
Контейнер: MKV
Видео: MPEG-4 AVC / NTSC 16:9 / 1920x1080 (2,35:1) / 21978 kbps / 24 fps / 0.442 bit/pixel / High@L4.1
Аудио 1: Russian / Dolby Digital Audio / 5.1 Ch / 48 kHz / 384 kbps / 16 bit / MVO / GreenРай Studio
Аудио 2: Danish / DTS-HD Master Audio / 5.1 Ch / 48 kHz / 3801 kbps / 24-bit (DTS Core: 5.1 Ch / 48 kHz / 1509 kbps / 24-bit) / Original
Формат субтитров: softsub (SRT)
Навигация по главам: есть

MediaInfo

Код:
Общее
Уникальный идентификатор                 : 242038162417227954768175074523952277776 (0xB616DABE7093D2379152B47410A56910)
Полное имя                               : D:\Flaskepost fra P.2016.BDRemux.1080p.mkv
Формат                                   : Matroska
Версия формата                           : Version 4 / Version 2
Размер файла                             : 20,4 Гбайт
Продолжительность                        : 1 ч. 51 м.
Режим общего битрейта                    : Переменный
Общий поток                              : 26,2 Мбит/сек
Название фильма                          : Release for RuTracker © flaSI-I
Дата кодирования                         : UTC 2016-08-25 22:36:01
Программа кодирования                    : mkvmerge v9.4.0 ('Knurl') 64bit
Библиотека кодирования                   : libebml v1.3.4 + libmatroska v1.4.5
Видео
Идентификатор                            : 1
Формат                                   : AVC
Формат/Информация                        : Advanced Video Codec
Профиль формата                          : High@L4.1
Параметр CABAC формата                   : Да
Параметр ReFrames формата                : 3 кадра
Параметр GOP формата                     : M=3, N=12
Идентификатор кодека                     : V_MPEG4/ISO/AVC
Продолжительность                        : 1 ч. 51 м.
Вид битрейта                             : Переменный
Битрейт                                  : 22,0 Мбит/сек
Максимальный битрейт                     : 35,0 Мбит/сек
Ширина                                   : 1920 пикселей
Высота                                   : 1080 пикселей
Соотношение сторон                       : 16:9
Режим частоты кадров                     : Постоянный
Частота кадров                           : 24,000 кадра/сек
Стандарт вещания                         : NTSC
Цветовое пространство                    : YUV
Субдискретизация насыщенности            : 4:2:0
Битовая глубина                          : 8 бит
Тип развёртки                            : Прогрессивная
Бит/(Пиксели*Кадры)                      : 0.442
Размер потока                            : 17,1 Гбайт (84%)
Язык                                     : Danish
Default                                  : Да
Forced                                   : Нет
Цветовой диапазон                        : Limited
Основные цвета                           : BT.709
Характеристики трансфера                 : BT.709
Коэффициенты матрицы                     : BT.709
Аудио #1
Идентификатор                            : 2
Формат                                   : AC-3
Формат/Информация                        : Audio Coding 3
Расширение режима                        : CM (complete main)
Параметр Endianness формата              : Big
Идентификатор кодека                     : A_AC3
Продолжительность                        : 1 ч. 51 м.
Вид битрейта                             : Постоянный
Битрейт                                  : 384 Кбит/сек
Каналы                                   : 6 каналов
Расположение каналов                     : Front: L C R, Side: L R, LFE
Частота                                  : 48,0 КГц
Частота кадров                           : 31,250 кадров/сек (1536 spf)
Метод сжатия                             : С потерями
Размер потока                            : 306 Мбайт (1%)
Заголовок                                : MVO / GreenРай Studio
Язык                                     : Russian
Default                                  : Да
Forced                                   : Нет
Аудио #2
Идентификатор                            : 3
Формат                                   : DTS
Формат/Информация                        : Digital Theater Systems
Профиль формата                          : MA / Core
Режим                                    : 16
Параметр Endianness формата              : Big
Идентификатор кодека                     : A_DTS
Продолжительность                        : 1 ч. 51 м.
Вид битрейта                             : Переменный / Постоянный
Битрейт                                  : 3840 Кбит/сек / 1509 Кбит/сек
Каналы                                   : 6 каналов
Расположение каналов                     : Front: L C R, Side: L R, LFE
Частота                                  : 48,0 КГц
Частота кадров                           : 93,750 кадра/сек (512 spf)
Битовая глубина                          : 24 бит
Метод сжатия                             : Без потерь / Lossy
Размер потока                            : 2,96 Гбайт (15%)
Заголовок                                : Original
Язык                                     : Danish
Default                                  : Нет
Forced                                   : Нет
Текст #1
Идентификатор                            : 4
Формат                                   : UTF-8
Идентификатор кодека                     : S_TEXT/UTF8
Идентификатор кодека/Информация          : UTF-8 Plain Text
Продолжительность                        : 1 ч. 46 м.
Битрейт                                  : 69 бит/сек
Count of elements                        : 1212
Размер потока                            : 54,1 Кбайт (0%)
Заголовок                                : перевод Grabomir
Язык                                     : Russian
Default                                  : Нет
Forced                                   : Нет
Текст #2
Идентификатор                            : 5
Формат                                   : UTF-8
Идентификатор кодека                     : S_TEXT/UTF8
Идентификатор кодека/Информация          : UTF-8 Plain Text
Продолжительность                        : 1 ч. 46 м.
Битрейт                                  : 38 бит/сек
Count of elements                        : 853
Размер потока                            : 30,2 Кбайт (0%)
Заголовок                                : ENGLiSH
Язык                                     : English
Default                                  : Нет
Forced                                   : Нет
Текст #3
Идентификатор                            : 6
Формат                                   : UTF-8
Идентификатор кодека                     : S_TEXT/UTF8
Идентификатор кодека/Информация          : UTF-8 Plain Text
Продолжительность                        : 1 ч. 44 м.
Битрейт                                  : 41 бит/сек
Count of elements                        : 773
Размер потока                            : 31,6 Кбайт (0%)
Заголовок                                : NORWEGiAN
Язык                                     : Norwegian
Default                                  : Нет
Forced                                   : Нет
Текст #4
Идентификатор                            : 7
Формат                                   : UTF-8
Идентификатор кодека                     : S_TEXT/UTF8
Идентификатор кодека/Информация          : UTF-8 Plain Text
Продолжительность                        : 1 ч. 46 м.
Битрейт                                  : 39 бит/сек
Count of elements                        : 775
Размер потока                            : 31,0 Кбайт (0%)
Заголовок                                : SWEDiSH
Язык                                     : Swedish
Default                                  : Нет
Forced                                   : Нет
Текст #5
Идентификатор                            : 8
Формат                                   : UTF-8
Идентификатор кодека                     : S_TEXT/UTF8
Идентификатор кодека/Информация          : UTF-8 Plain Text
Продолжительность                        : 1 ч. 28 м.
Битрейт                                  : 5 бит/сек
Count of elements                        : 101
Размер потока                            : 3,76 Кбайт (0%)
Заголовок                                : Original / FORCED
Язык                                     : Danish
Default                                  : Нет
Forced                                   : Нет
Текст #6
Идентификатор                            : 9
Формат                                   : UTF-8
Идентификатор кодека                     : S_TEXT/UTF8
Идентификатор кодека/Информация          : UTF-8 Plain Text
Продолжительность                        : 1 ч. 46 м.
Битрейт                                  : 42 бит/сек
Count of elements                        : 827
Размер потока                            : 32,9 Кбайт (0%)
Заголовок                                : Original / SDH
Язык                                     : Danish
Default                                  : Нет
Forced                                   : Нет
Меню
00:00:00.000                             : en:00:00:00.000
00:09:48.542                             : en:00:09:48.542
00:20:55.792                             : en:00:20:55.792
00:30:47.167                             : en:00:30:47.167
00:41:20.542                             : en:00:41:20.542
00:53:17.625                             : en:00:53:17.625
01:02:45.750                             : en:01:02:45.750
01:12:56.875                             : en:01:12:56.875
01:23:17.458                             : en:01:23:17.458
01:33:34.167                             : en:01:33:34.167
01:42:35.917                             : en:01:42:35.917

Скриншоты


_________________
Показать сообщения:    

Текущее время: Сегодня 09:45

Часовой пояс: GMT



Вы не можете начинать темы
Вы не можете отвечать на сообщения
Вы не можете редактировать свои сообщения
Вы не можете удалять свои сообщения
Вы не можете голосовать в опросах
Вы не можете прикреплять файлы к сообщениям
Вы не можете скачивать файлы