Важное объявление!
У Нас Все раздачи мультитрекерные, при нуле пиров в релизах, можете смело вставать на закачку!
 
Автор Сообщение

HUNTER

Стаж:
4 года 4 месяца
Сообщений:
56722

Репутация: 101

[+] [-]
Вне форума [Профиль] [ЛС]

Мистер Три Тысячи / Мистер 3000 / Mr 3000
КиноПоиск | IMDb
-Страна: США
Жанр: комедия, спорт, драма, мелодрама
Год выпуска: 2004
Продолжительность: 1:39:09-Перевод: Профессиональный (многоголосый закадровый) - Видеосервис
Cубтитры: английские, польские, чешские, венгерские, иврит, греческие, болгарские, словацкие, русские, румынские, латвийские, литовские, эстонские
Оригинальная аудиодорожка: английский-Режиссер: Чарльз Стоун III-В ролях: Берни Мак, Анджела Бассетт, Майкл Рисполи, Брайан Дж. Уайт, Йен Энтони Дэйл, Ивэн Джонс, Амори Ноласко, Дондре Уитфилд, Пол Сорвино, Эрл Биллингс и др.-Когда-то имя бейсболиста Стэна Росса гремело на всю страну. Коллеги и фанаты звали его не иначе, как Мистер 3000 — по рекордному числу хоумранов. Он ушел на покой в зените славы, но Фортуна сыграла с ним злую шутку.
Спустя 10 лет три его хоумрана признаются незасчитанными, и Стэн оказывается перед перспективой войти в историю спорта не как герой, а как курьезный Мистер 2997. Самолюбивый Росс тут же объявляет, что возвращается в игру, дабы восстановить свой неофициальный титул. Только вот сможет ли 47-летний ветеран, давно потерявший форму, на равных соревноваться с молодыми и агрессивными коллегами — или ему придется смириться с тем, что рекорды остались в прошлом?-Меню: анимированное, озвученное, язык - английский.
Дополнительные материалы: Рассказ о съемках, Рассказ о подборе актеров, "Все любят Стена", 3 продленные сцены, 3 удаленные сцены, Коллекция смешных дублей (все переведено таким же набором субтитров).
В раздаче присутствуют сканы ковриков.-Исходник: DVD9 R5 от Видеосервис. Региональная защита снята.-Тип релиза: DVD9
Контейнер: DVD-Video
Видео: PAL 16:9 (720x576) VBR
Аудио 1: Dolby AC3, 448 Kbps, 6 ch - Английский
Аудио 2: Dolby AC3, 384 Kbps, 6 ch - Польский
Аудио 3: Dolby AC3, 384 Kbps, 6 ch - Чешский
Аудио 4: Dolby AC3, 384 Kbps, 6 ch - Венгерский
Аудио 5: Dolby AC3, 192 Kbps, 2 ch - MVO Видеосервис
Аудио 6: Dolby AC3, 192 Kbps, 2 ch - комментарии

DVDInfo

Title: Mr. 3000
Size: 6.45 Gb ( 6 768 234,00 KBytes ) - DVD-9
Enabled regions: 1, 2, 3, 4, 5, 6, 7, 8
VTS_01 :
Play Length: 01:39:09+00:00:00
Video: PAL 16:9 (720x576) VBR, Auto Letterboxed
Audio:
English, AC3, 3/2 (L,C,R,SL,SR)+LFE ch, 448 kbps, Delay 6 mSec
Polish, AC3, 3/2 (L,C,R,SL,SR)+LFE ch, 384 kbps, Delay 6 mSec
Czech(Ceske), AC3, 3/2 (L,C,R,SL,SR)+LFE ch, 384 kbps, Delay 6 mSec
Magyar, AC3, 3/2 (L,C,R,SL,SR)+LFE ch, 384 kbps, Delay 6 mSec
Russian, AC3, 2/0 (L,R) ch, 192 kbps, Delay 6 mSec
English, AC3, 2/0 (L,R) ch, 192 kbps, Delay 6 mSec
Subtitles:
English
English
Polish
Czech(Ceske)
Magyar
Hebrew
Greek
Bulgarian
Slovak
Russian
Romanian
Latvian
Lithuanian
Estonian
Polish
Czech(Ceske)
Magyar
Hebrew
Greek
Bulgarian
Slovak
Russian
Romanian
Polish
Czech(Ceske)
Magyar
Russian
VTS_02 :
Play Length: 00:00:11
Video: PAL 16:9 (720x576) VBR, Auto Pan&Scan
Audio:
Not specified (Dolby AC3, 6 ch)
VTS_03 :
Play Length: 00:15:01+00:10:04+00:03:25+00:03:20+00:05:52+{00:02:19}+{00:01:06}+{00:02:27}
Video: PAL 4:3 (720x576) VBR
Audio:
English (Dolby AC3, 2 ch)
Subtitles:
Polish
Czech(Ceske)
Magyar
Hebrew
Greek
Bulgarian
Slovak
Russian
Romanian
VTS_04 :
Play Length: 00:02:12+{00:00:35}+{00:01:03}+{00:00:34}
Video: PAL 4:3 (720x576) VBR
Audio:
English (Dolby AC3, 2 ch)
English (Dolby AC3, 2 ch)
Subtitles:
Polish
Czech(Ceske)
Magyar
Hebrew
Greek
Bulgarian
Slovak
Russian
Romanian
Polish
Czech(Ceske)
Magyar
Hebrew
Greek
Bulgarian
Slovak
Russian
Romanian
* Menus Information *
VIDEO_TS Menu
Video:
PAL 16:9 (720x576) VBR
Auto Pan&Scan
English Language Unit :
Title Menu
VTS_01 Menu
Video:
PAL 16:9 (720x576) VBR
Auto Pan&Scan
Audio:
Not specified (Dolby AC3, 2 ch)
English Language Unit :
Root Menu
VTS_02 Menu
Video:
PAL 16:9 (720x576) VBR
Auto Letterboxed
English Language Unit :
Root Menu
VTS_03 Menu
Video:
PAL 4:3 (720x576) VBR
Auto Pan&Scan, Auto Letterboxed
English Language Unit :
Root Menu
VTS_04 Menu
Video:
PAL 4:3 (720x576) VBR
Auto Pan&Scan, Auto Letterboxed
English Language Unit :
Root Menu

MediaInfo

Общее
Полное имя : C:\Users\5742\Desktop\На Раздачу\Mr. 3000\VIDEO_TS\VTS_01_1.VOB
Формат : MPEG-PS
Размер файла : 1024 Мбайт
Продолжительность : 19 м.
Режим общего битрейта : Переменный
Общий поток : 7348 Кбит/сек
Библиотека кодирования : encoded by TMPGEnc (ver. 2.524.63.181)
Видео
Идентификатор : 224 (0xE0)
Формат : MPEG Video
Версия формата : Version 2
Профиль формата : Main@Main
Параметр BVOP формата : Да
Параметр матрицы формата : Выборочная
Продолжительность : 19 м.
Вид битрейта : Переменный
Битрейт : 5218 Кбит/сек
Ширина : 720 пикселей
Высота : 576 пикселей
Соотношение сторон : 16:9
Частота кадров : 25,000 кадров/сек
Стандарт вещания : PAL
Цветовое пространство : YUV
Субдискретизация насыщенности : 4:2:0
Битовая глубина : 8 бит
Тип развёртки : Прогрессивная
Метод сжатия : С потерями
Бит/(Пиксели*Кадры) : 0.503
Размер потока : 727 Мбайт (71%)
Библиотека кодирования : TMPGEnc / 2.524.63.181 2.524.63.181
Основные цвета : BT.470-2 System B, BT.470-2 System G
Характеристики трансфера : BT.470-2 System B, BT.470-2 System G
Коэффициенты матрицы : BT.470-2 System B, BT.470-2 System G
Аудио #1
Идентификатор : 189 (0xBD)-128 (0x80)
Формат : AC-3
Формат/Информация : Audio Coding 3
Расширение режима : CM (complete main)
Параметр Endianness формата : Big
Режим смешивания : DVD-Video
Продолжительность : 19 м.
Вид битрейта : Постоянный
Битрейт : 448 Кбит/сек
Каналы : 6 каналов
Расположение каналов : Front: L C R, Side: L R, LFE
Частота : 48,0 КГц
Битовая глубина : 16 бит
Метод сжатия : С потерями
Задержка видео : 6 мс.
Размер потока : 62,4 Мбайт (6%)
Аудио #2
Идентификатор : 189 (0xBD)-129 (0x81)
Формат : AC-3
Формат/Информация : Audio Coding 3
Расширение режима : CM (complete main)
Параметр Endianness формата : Big
Режим смешивания : DVD-Video
Продолжительность : 19 м.
Вид битрейта : Постоянный
Битрейт : 384 Кбит/сек
Каналы : 6 каналов
Расположение каналов : Front: L C R, Side: L R, LFE
Частота : 48,0 КГц
Битовая глубина : 16 бит
Метод сжатия : С потерями
Задержка видео : 6 мс.
Размер потока : 53,5 Мбайт (5%)
Аудио #3
Идентификатор : 189 (0xBD)-130 (0x82)
Формат : AC-3
Формат/Информация : Audio Coding 3
Расширение режима : CM (complete main)
Параметр Endianness формата : Big
Режим смешивания : DVD-Video
Продолжительность : 19 м.
Вид битрейта : Постоянный
Битрейт : 384 Кбит/сек
Каналы : 6 каналов
Расположение каналов : Front: L C R, Side: L R, LFE
Частота : 48,0 КГц
Битовая глубина : 16 бит
Метод сжатия : С потерями
Задержка видео : 6 мс.
Размер потока : 53,5 Мбайт (5%)
Аудио #4
Идентификатор : 189 (0xBD)-131 (0x83)
Формат : AC-3
Формат/Информация : Audio Coding 3
Расширение режима : CM (complete main)
Параметр Endianness формата : Big
Режим смешивания : DVD-Video
Продолжительность : 19 м.
Вид битрейта : Постоянный
Битрейт : 384 Кбит/сек
Каналы : 6 каналов
Расположение каналов : Front: L C R, Side: L R, LFE
Частота : 48,0 КГц
Битовая глубина : 16 бит
Метод сжатия : С потерями
Задержка видео : 6 мс.
Размер потока : 53,5 Мбайт (5%)
Аудио #5
Идентификатор : 189 (0xBD)-132 (0x84)
Формат : AC-3
Формат/Информация : Audio Coding 3
Профиль формата : Dolby Digital
Расширение режима : CM (complete main)
Параметр Endianness формата : Big
Режим смешивания : DVD-Video
Продолжительность : 19 м.
Вид битрейта : Постоянный
Битрейт : 192 Кбит/сек
Каналы : 2 канала
Расположение каналов : Front: L R
Частота : 48,0 КГц
Битовая глубина : 16 бит
Метод сжатия : С потерями
Задержка видео : 6 мс.
Размер потока : 26,7 Мбайт (3%)
Аудио #6
Идентификатор : 189 (0xBD)-133 (0x85)
Формат : AC-3
Формат/Информация : Audio Coding 3
Расширение режима : CM (complete main)
Параметр Endianness формата : Big
Режим смешивания : DVD-Video
Продолжительность : 19 м.
Вид битрейта : Постоянный
Битрейт : 192 Кбит/сек
Каналы : 2 канала
Расположение каналов : Front: L R
Частота : 48,0 КГц
Битовая глубина : 16 бит
Метод сжатия : С потерями
Задержка видео : 6 мс.
Размер потока : 26,7 Мбайт (3%)
Текст #1
Идентификатор : 189 (0xBD)-46 (0x2E)
Формат : RLE
Формат/Информация : Run-length encoding
Режим смешивания : DVD-Video
Продолжительность : 19 м.
Задержка видео : 3 с. 366 мс.
Текст #2
Идентификатор : 189 (0xBD)-47 (0x2F)
Формат : RLE
Формат/Информация : Run-length encoding
Режим смешивания : DVD-Video
Продолжительность : 19 м.
Задержка видео : 3 с. 366 мс.
Текст #3
Идентификатор : 189 (0xBD)-48 (0x30)
Формат : RLE
Формат/Информация : Run-length encoding
Режим смешивания : DVD-Video
Продолжительность : 19 м.
Задержка видео : 3 с. 366 мс.
Текст #4
Идентификатор : 189 (0xBD)-49 (0x31)
Формат : RLE
Формат/Информация : Run-length encoding
Режим смешивания : DVD-Video
Продолжительность : 19 м.
Задержка видео : 3 с. 366 мс.
Текст #5
Идентификатор : 189 (0xBD)-50 (0x32)
Формат : RLE
Формат/Информация : Run-length encoding
Режим смешивания : DVD-Video
Продолжительность : 19 м.
Задержка видео : 3 с. 366 мс.
Текст #6
Идентификатор : 189 (0xBD)-51 (0x33)
Формат : RLE
Формат/Информация : Run-length encoding
Режим смешивания : DVD-Video
Продолжительность : 19 м.
Задержка видео : 3 с. 366 мс.
Текст #7
Идентификатор : 189 (0xBD)-52 (0x34)
Формат : RLE
Формат/Информация : Run-length encoding
Режим смешивания : DVD-Video
Продолжительность : 19 м.
Задержка видео : 3 с. 366 мс.
Текст #8
Идентификатор : 189 (0xBD)-53 (0x35)
Формат : RLE
Формат/Информация : Run-length encoding
Режим смешивания : DVD-Video
Продолжительность : 19 м.
Задержка видео : 3 с. 366 мс.
Текст #9
Идентификатор : 189 (0xBD)-54 (0x36)
Формат : RLE
Формат/Информация : Run-length encoding
Режим смешивания : DVD-Video
Продолжительность : 19 м.
Задержка видео : 3 с. 366 мс.
Текст #10
Идентификатор : 189 (0xBD)-32 (0x20)
Формат : RLE
Формат/Информация : Run-length encoding
Режим смешивания : DVD-Video
Текст #11
Идентификатор : 189 (0xBD)-33 (0x21)
Формат : RLE
Формат/Информация : Run-length encoding
Режим смешивания : DVD-Video
Текст #12
Идентификатор : 189 (0xBD)-34 (0x22)
Формат : RLE
Формат/Информация : Run-length encoding
Режим смешивания : DVD-Video
Текст #13
Идентификатор : 189 (0xBD)-35 (0x23)
Формат : RLE
Формат/Информация : Run-length encoding
Режим смешивания : DVD-Video
Текст #14
Идентификатор : 189 (0xBD)-36 (0x24)
Формат : RLE
Формат/Информация : Run-length encoding
Режим смешивания : DVD-Video
Текст #15
Идентификатор : 189 (0xBD)-37 (0x25)
Формат : RLE
Формат/Информация : Run-length encoding
Режим смешивания : DVD-Video
Текст #16
Идентификатор : 189 (0xBD)-38 (0x26)
Формат : RLE
Формат/Информация : Run-length encoding
Режим смешивания : DVD-Video
Текст #17
Идентификатор : 189 (0xBD)-39 (0x27)
Формат : RLE
Формат/Информация : Run-length encoding
Режим смешивания : DVD-Video
Текст #18
Идентификатор : 189 (0xBD)-40 (0x28)
Формат : RLE
Формат/Информация : Run-length encoding
Режим смешивания : DVD-Video
Текст #19
Идентификатор : 189 (0xBD)-41 (0x29)
Формат : RLE
Формат/Информация : Run-length encoding
Режим смешивания : DVD-Video
Текст #20
Идентификатор : 189 (0xBD)-42 (0x2A)
Формат : RLE
Формат/Информация : Run-length encoding
Режим смешивания : DVD-Video
Текст #21
Идентификатор : 189 (0xBD)-43 (0x2B)
Формат : RLE
Формат/Информация : Run-length encoding
Режим смешивания : DVD-Video
Текст #22
Идентификатор : 189 (0xBD)-44 (0x2C)
Формат : RLE
Формат/Информация : Run-length encoding
Режим смешивания : DVD-Video
Текст #23
Идентификатор : 189 (0xBD)-45 (0x2D)
Формат : RLE
Формат/Информация : Run-length encoding
Режим смешивания : DVD-Video
Меню

Скриншоты меню

Скриншоты фильм

Скриншоты дополнительные материалы

Сэмплы

Фильм
Допы

_________________
Показать сообщения:    

Текущее время: Сегодня 16:38

Часовой пояс: GMT



Вы не можете начинать темы
Вы не можете отвечать на сообщения
Вы не можете редактировать свои сообщения
Вы не можете удалять свои сообщения
Вы не можете голосовать в опросах
Вы не можете прикреплять файлы к сообщениям
Вы не можете скачивать файлы