Важное объявление!
У Нас Все раздачи мультитрекерные, при нуле пиров в релизах, можете смело вставать на закачку!
 
Автор Сообщение

HUNTER

Стаж:
4 года 4 месяца
Сообщений:
56755

Репутация: 101

[+] [-]
Вне форума [Профиль] [ЛС]

Мистер Квак / Ribbit
Страна: Малайзия
Жанр: Мультфильм, приключения.
Продолжительность: 01:24:56
Год выпуска: 2014
Перевод: Одноголосый закадровый Barin101
Русские субтитры: нет
Режиссёр: Чак Пауэрс / Chuck Powers
Описание: В джунглях возле пруда живёт древесная лягушка по имени Квак. Этот лягушонок не любит прыгать и плавать, а все его мысли заняты поиском смысла жизни. Но однажды местный "шаман" раскрывает ему страшную тайну: на самом деле Квак - Заколдованный Принц.
И тогда лягушонок Квак вместе со своей лучшей подругой белкой Сенди отправляется в путешествие на поиски принцессы, которая расколдует его своим поцелуем. В дороге их ждёт множество опасностей и приключений.
Семпл: http://multi-up.com/1048808
Качество: HDRip
Формат: AVI
Видео: 720x400 (1.80:1), 23.976 fps, XviD MPEG-4 ~1796 kbps avg, 0.26 bit/pixel
Аудио 1: 48 kHz, AC3 Dolby Digital, 2/0 (L,R) ch, ~192 kbps РУС
Аудио 2: 48 kHz, AC3 Dolby Digital, 2/0 (L,R) ch, ~192 kbps ENG
Субтитры: Отсутствуют
Кинопоиск
IMDB

Подробные технические данные

GeneralComplete name : A:\Ribbit.2014.HDRip.XviD.AC3-Barin101.aviFormat : AVIFormat/Info : Audio Video InterleaveFile size : 1.30 GiBDuration : 1h 24mnOverall bit rate : 2 196 KbpsWriting application : VirtualDubMod 1.5.10.2 (build 2540/release)Writing library : VirtualDubMod build 2540/release
VideoID : 0Format : MPEG-4 VisualFormat profile : Advanced Simple@L5Format settings, BVOP : 2Format settings, QPel : NoFormat settings, GMC : No warppointsFormat settings, Matrix : Default (H.263)Muxing mode : Packed bitstreamCodec ID : XVIDCodec ID/Hint : XviDDuration : 1h 24mnBit rate : 1 798 KbpsWidth : 720 pixelsHeight : 400 pixelsDisplay aspect ratio : 16:9Frame rate : 23.976 fpsColor space : YUVChroma subsampling : 4:2:0Bit depth : 8 bitsScan type : ProgressiveCompression mode : LossyBits/(Pixel*Frame) : 0.260Stream size : 1.07 GiB (82%)Writing library : XviD 64
Audio #1ID : 1Format : AC-3Format/Info : Audio Coding 3Mode extension : CM (complete main)Format settings, Endianness : BigCodec ID : 2000Duration : 1h 24mnBit rate mode : ConstantBit rate : 192 KbpsChannel(s) : 2 channelsChannel positions : Front: L RSampling rate : 48.0 KHzBit depth : 16 bitsCompression mode : LossyStream size : 117 MiB (9%)Alignment : Split accross interleavesInterleave, duration : 42 ms (1.00 video frame)Interleave, preload duration : 500 ms
Audio #2ID : 2Format : AC-3Format/Info : Audio Coding 3Mode extension : CM (complete main)Format settings, Endianness : BigCodec ID : 2000Duration : 1h 24mnBit rate mode : ConstantBit rate : 192 KbpsChannel(s) : 2 channelsChannel positions : Front: L RSampling rate : 48.0 KHzBit depth : 16 bitsCompression mode : LossyStream size : 117 MiB (9%)Alignment : Split accross interleavesInterleave, duration : 42 ms (1.00 video frame)Interleave, preload duration : 500 ms

_________________
Показать сообщения:    

Текущее время: Сегодня 12:07

Часовой пояс: GMT



Вы не можете начинать темы
Вы не можете отвечать на сообщения
Вы не можете редактировать свои сообщения
Вы не можете удалять свои сообщения
Вы не можете голосовать в опросах
Вы не можете прикреплять файлы к сообщениям
Вы не можете скачивать файлы