Важное объявление!
У Нас Все раздачи мультитрекерные, при нуле пиров в релизах, можете смело вставать на закачку!
 
Автор Сообщение

HUNTER

Стаж:
4 года 4 месяца
Сообщений:
56848

Репутация: 101

[+] [-]
Вне форума [Профиль] [ЛС]

Мисс "45 калибр" / Ангел мщения / Ms. 45 / Angel of Vengeance
Страна: США
Студия: Navaron Films
Жанр: триллер, драма, криминал
Год выпуска: 1981
Продолжительность: 01:20:51
Перевод: Профессиональный (многоголосый закадровый) ТК Россия
Перевод 2: Авторский (одноголосый закадровый) С. Кузнецов
Cубтитры: русские, английские
Оригинальная аудиодорожка: английский
Режиссер: Абель Феррара / Abel Ferrara
В ролях: Зои Ланд, Альбер Зинкис, Хелен МакГара, Дарлин Стато, Абель Феррара, Найк Закманоглу, Джэйн Кеннеди, Джерри Игараси, Майкл Минард, Бонни Уильямс, Джек Тибо, Эвелин Смит, Николас Сент-Джон, Стив Дэш, Джо Перс
Описание: Главная героиня картины по имени Тана, красивая и немая девушка из Нью-Йорка, становится жертвой нападения. Однажды, когда она возвращалась домой с работы, ее жестоко изнасиловал незнакомец в маске (его роль исполнил сам режиссер ленты, Абель Феррара). И дикий кошмар на этом не закончился: едва оправившись от шока и добравшись до дома, девушка подвергается изнасилованию во второй раз. Но на этот раз обидчик не ушел от расплаты: Тана прикончила мерзавца, размозжив ему голову утюгом! Почувствовав вкус к убийству и вооружившись пистолетом 45-го калибра, героиня пускается в зловещий, кровавый рейд отмщения мужчинам, безжалостно истребляя всех несчастных представителей сильного пола, обративших на нее свое внимание!

Sample
Тип релиза: BDRemux 1080p
Контейнер: MKV
Видео: MPEG4 AVC Video, H264, 16:9, 1920x1080, 23,976 fps, 21995 Kbps
Аудио: Russian (AC3, 2 ch, 192 kbps, 16 bits, 48.0 KHz) - ТК Россия
Аудио 2: Russian (AC3, 2 ch, 192 kbps, 16 bits, 48.0 KHz) - С. Кузнецов
Аудио 3: English (DTS-HD MA, 2 ch, 1709 kbps, 16 bits, 48.0 KHz / DTS core: 2 ch, 1509 kbps, 16 bits, 48.0 KHz) - оригинал
Формат субтитров: softsub (SRT)

MediaInfo

General
Unique ID : 224719258162520213608585734274514196000 (0xA90F5AD6A2876F41A7B380EC45D09620)
Complete name : E:\1\Ms 45 (Angel Of Vengeance) 1981\Ms 45 1981 BDRemux 1080p.mkv
Format : Matroska
Format version : Version 4 / Version 2
File size : 13.5 GiB
Duration : 1h 20mn
Overall bit rate mode : Variable
Overall bit rate : 24.0 Mbps
Encoded date : UTC 2014-09-23 00:06:55
Writing application : mkvmerge v6.1.0 ('Old Devil') built on Mar 2 2013 14:32:37
Writing library : libebml v1.3.0 + libmatroska v1.4.0
Video
ID : 1
Format : AVC
Format/Info : Advanced Video Codec
Format profile : High@L4.1
Format settings, CABAC : Yes
Format settings, ReFrames : 4 frames
Codec ID : V_MPEG4/ISO/AVC
Duration : 1h 20mn
Bit rate mode : Variable
Maximum bit rate : 38.0 Mbps
Width : 1 920 pixels
Height : 1 080 pixels
Display aspect ratio : 16:9
Frame rate mode : Constant
Frame rate : 23.976 fps
Color space : YUV
Chroma subsampling : 4:2:0
Bit depth : 8 bits
Scan type : Progressive
Language : English
Default : Yes
Forced : No
Audio #1
ID : 2
Format : AC-3
Format/Info : Audio Coding 3
Mode extension : CM (complete main)
Format settings, Endianness : Big
Codec ID : A_AC3
Duration : 1h 20mn
Bit rate mode : Constant
Bit rate : 192 Kbps
Channel count : 2 channels
Channel positions : Front: L R
Sampling rate : 48.0 KHz
Bit depth : 16 bits
Compression mode : Lossy
Stream size : 111 MiB (1%)
Title : ТК Россия
Language : Russian
Default : Yes
Forced : No
Audio #2
ID : 3
Format : AC-3
Format/Info : Audio Coding 3
Mode extension : CM (complete main)
Format settings, Endianness : Big
Codec ID : A_AC3
Duration : 1h 20mn
Bit rate mode : Constant
Bit rate : 192 Kbps
Channel count : 2 channels
Channel positions : Front: L R
Sampling rate : 48.0 KHz
Bit depth : 16 bits
Compression mode : Lossy
Stream size : 111 MiB (1%)
Title : С. Кузнецов
Language : Russian
Default : No
Forced : No
Audio #3
ID : 4
Format : DTS
Format/Info : Digital Theater Systems
Format profile : MA / Core
Mode : 16
Format settings, Endianness : Big
Codec ID : A_DTS
Duration : 1h 20mn
Bit rate mode : Variable
Bit rate : Unknown / 1 509 Kbps
Channel count : 2 channels
Channel positions : Front: L R
Sampling rate : 48.0 KHz
Bit depth : 16 bits
Compression mode : Lossless / Lossy
Language : English
Default : No
Forced : No
Text #1
ID : 5
Format : UTF-8
Codec ID : S_TEXT/UTF8
Codec ID/Info : UTF-8 Plain Text
Language : Russian
Default : No
Forced : No
Text #2
ID : 6
Format : UTF-8
Codec ID : S_TEXT/UTF8
Codec ID/Info : UTF-8 Plain Text
Language : English
Default : No
Forced : No
Menu
00:00:00.000 : en:00:00:00.000
00:12:00.803 : en:00:12:00.803
00:21:13.022 : en:00:21:13.022
00:31:26.009 : en:00:31:26.009
00:47:12.455 : en:00:47:12.455
00:57:40.874 : en:00:57:40.874
01:04:15.977 : en:01:04:15.977
01:16:51.232 : en:01:16:51.232

Скриншоты


_________________
Показать сообщения:    

Текущее время: Сегодня 03:21

Часовой пояс: GMT



Вы не можете начинать темы
Вы не можете отвечать на сообщения
Вы не можете редактировать свои сообщения
Вы не можете удалять свои сообщения
Вы не можете голосовать в опросах
Вы не можете прикреплять файлы к сообщениям
Вы не можете скачивать файлы
Наши партнеры: интернет магазин Ивановского трикотажа textilla.ru