Важное объявление!
У Нас Все раздачи мультитрекерные, при нуле пиров в релизах, можете смело вставать на закачку!
 
Автор Сообщение

димитри37

Стаж:
3 года 9 месяцев
Сообщений:
1237

Репутация: 127

[+] [-]
Вне форума [Профиль] [ЛС]

Мираж
Жанр: иронический боевик, приключенческий
Год выпуска: 2008
Продолжительность: 01:20:54
Режиссёр: Тигран Кеосаян
В ролях: Дмитрий Марьянов, Алена Хмельницкая, Алексей Чадов, Алексей Бардуков, Наталья Наумова, Антонина Комиссарова, Рустам Уразаев (озвучание - Тигран Кеосаян), Алексей Панин, Сергей Требесов, Андрей Новопашин, Юрий Стоянов, Виктор Вержбицкий, Илья Бледный, Виталий Гребенников, Лия Ельшевская, Джемал Тетруашвили, Алексей Дмитриев, Константин Мельников, Давид Кеосаян, Лаура Кеосаян, Юрий Сафаров, Леонид Володарский (голос за кадром)
Описание: Обслуживая праздничный прием в доме некоего народного избранника, Валерия случайно становится свидетельницей того, как он убивает какого-то мужчину. Спасая свою жизнь, она бежит из России в одну из стран Ближнего Востока. Там Лера и ещё две русские девушки - Танюха и Ульяна - попадают в руки современных работорговцев. Пленниц увозят в мертвый город на берегу моря, набитый оружием и наркотиками. Несколько позже к ним присоединяются два заблудившихся российских туриста - студенты МГУ Миша и Женя. Шестым в город прибывает загадочный Ловец, приехавший из России за Лерой...
Доп. информация:
Сценарий: Алена Званцова, Дмитрий Константинов (при участии Тиграна Кеосаяна)
Оператор: Игорь Клебанов
Художник: Константин Мельников
Конные трюки: Игорь Лаптев, Сергей Требесов
Композитор: Сергей Терехов
Ограничения на просмотр: зрителям, достигшим 16 лет

Интересные факты

  • Съемки проходили в Москве и неподалеку от Тамани, в Темрюкском районе Краснодарского края.
  • Фильм получил многочисленные негативные отзывы отечественных критиков.
Качество видео: DVDRip
Формат видео: AVI
Видео: 720x384 (1.88:1), 25 fps, XviD 64, 2145 kbps avg, 0.31 bit/pixel
Аудио: 48 kHz, AC3 Dolby Digital, 3/2 (L,C,R,l,r) + LFE ch, 448 kbps

MediaInfo

Полное имя : Mirazh.avi
Формат : AVI
Формат/Информация : Audio Video Interleave
Размер файла : 1,47 Гбайт
Продолжительность : 1 ч. 20 м.
Общий поток : 2603 Кбит/сек
Программа кодирования : VirtualDubMod 1.5.10.3 (build 2550/release)
Библиотека кодирования : VirtualDubMod build 2550/release
Видео
Идентификатор : 0
Формат : MPEG-4 Visual
Профиль формата : Advanced Simple@L5
Параметр BVOP формата : 2
Параметр QPel формата : Нет
Параметр GMC формата : Без точки перехода
Параметр матрицы формата : Выборочная
Идентификатор кодека : XVID
Идентификатор кодека/Подсказка : XviD
Продолжительность : 1 ч. 20 м.
Битрейт : 2145 Кбит/сек
Ширина : 720 пикселей
Высота : 384 пикселя
Соотношение сторон : 1,85:1
Частота кадров : 25,000 кадров/сек
Цветовое пространство : YUV
Субдискретизация насыщенности : 4:2:0
Битовая глубина : 8 бит
Тип развёртки : Прогрессивная
Метод сжатия : С потерями
Бит/(Пиксели*Кадры) : 0.310
Размер потока : 1,21 Гбайт (82%)
Библиотека кодирования : XviD 64
Аудио
Идентификатор : 1
Формат : AC-3
Формат/Информация : Audio Coding 3
Расширение режима : CM (complete main)
Параметр Endianness формата : Big
Идентификатор кодека : 2000
Продолжительность : 1 ч. 20 м.
Вид битрейта : Постоянный
Битрейт : 448 Кбит/сек
Каналы : 6 каналов
Расположение каналов : Front: L C R, Side: L R, LFE
Частота : 48,0 КГц
Битовая глубина : 16 бит
Метод сжатия : С потерями
Размер потока : 259 Мбайт (17%)
Выравнивание : Разделение по промежуткам
Продолжительность промежутка : 40 мс. (1,00 видеокадр)
Время предзагрузки промежутка : 500 мс.
Показать сообщения:    

Текущее время: Сегодня 09:09

Часовой пояс: GMT



Вы не можете начинать темы
Вы не можете отвечать на сообщения
Вы не можете редактировать свои сообщения
Вы не можете удалять свои сообщения
Вы не можете голосовать в опросах
Вы не можете прикреплять файлы к сообщениям
Вы не можете скачивать файлы