Важное объявление!
У Нас Все раздачи мультитрекерные, при нуле пиров в релизах, можете смело вставать на закачку!
 
Автор Сообщение

HUNTER

Стаж:
4 года 4 месяца
Сообщений:
56783

Репутация: 101

[+] [-]
Вне форума [Профиль] [ЛС]

Мираж / Mirage
Страна: США
Жанр: триллер, детектив
Год выпуска: 1965
Продолжительность: 01:44:15
Перевод: Профессиональный (дублированный) 6-й канал Санкт-Петербург, по заказу СТС, 1998
Cубтитры: английские
Оригинальная аудиодорожка: английский
Режиссер: Эдвард Дмитрик / Edward Dmytryk
В ролях: Грегори Пек, Дайан Бэйкер, Уолтер Мэттау, Кевин МакКарти, Джек Уэстон, Лейф Эриксон, Уолтер Абель, Джордж Кеннеди, Роберт Х. Харрис, Энн Сеймур, Хаус Джеймисон, Хари Роудс, Сайл Ламонт, Айлин Бэрал, Роксана Берард, Энн Доран
Описание: В офисе крупной компании происходят странные события: один человек выпадает из окна, другой — талантливый ученый — теряет память. Для расследования ученый нанимает детектива, но сам становится мишенью для преступников…
Сэмпл: http://sendfile.su/1112265
Качество видео: HDTVRip 720p. Рип сделан -Gabe-
Формат видео: MKV
Видео: 5608 Кбит/сек, 1280x720, 16/9, 25.000 кадр/сек MPEG-4 AVC (x264)
Аудио 1: Русский АС3 2.0, 48 kHz, 192 kbps - 6-й канал Санкт-Петербург, по заказу СТС, 1998 год
Аудио 2: Английский АС3 2.0, 48 kHz, 384 kbps
Ratings: 7,5/10

MediaInfo

General
Unique ID : 253252244894519466016524902985320559739 (0xBE869BB28205FCCC805870463A12F47B)
Complete name : E:\Mirage_Public\Mirage.1965.720p.HDTV.x264.mkv
Format : Matroska
Format version : Version 4 / Version 2
File size : 4.50 GiB
Duration : 1h 44mn
Overall bit rate mode : Variable
Overall bit rate : 6 184 Kbps
Encoded date : UTC 2015-04-26 07:31:05
Writing application : mkvmerge v7.8.0 ('River Man') 64bit built on Mar 27 2015 16:31:37
Writing library : libebml v1.3.1 + libmatroska v1.4.2
Video
ID : 1
Format : AVC
Format/Info : Advanced Video Codec
Format profile : High@L4.1
Format settings, CABAC : Yes
Format settings, ReFrames : 5 frames
Codec ID : V_MPEG4/ISO/AVC
Duration : 1h 44mn
Bit rate mode : Variable
Bit rate : 5 608 Kbps
Maximum bit rate : 25.0 Mbps
Width : 1 280 pixels
Height : 720 pixels
Display aspect ratio : 16:9
Frame rate mode : Constant
Frame rate : 25.000 fps
Color space : YUV
Chroma subsampling : 4:2:0
Bit depth : 8 bits
Scan type : Progressive
Bits/(Pixel*Frame) : 0.243
Stream size : 3.99 GiB (89%)
Writing library : x264 core 114 r1924 08d04a4
Encoding settings : cabac=1 / ref=5 / deblock=1:0:0 / analyse=0x3:0x133 / me=umh / subme=9 / psy=1 / psy_rd=1.00:0.00 / mixed_ref=1 / me_range=16 / chroma_me=1 / trellis=1 / 8x8dct=1 / cqm=0 / deadzone=21,11 / fast_pskip=1 / chroma_qp_offset=-2 / threads=6 / sliced_threads=0 / nr=0 / decimate=1 / interlaced=0 / constrained_intra=0 / bframes=8 / b_pyramid=0 / b_adapt=1 / b_bias=0 / direct=1 / weightb=1 / open_gop=0 / weightp=2 / keyint=250 / keyint_min=25 / scenecut=40 / intra_refresh=0 / rc_lookahead=40 / rc=2pass / mbtree=1 / bitrate=5608 / ratetol=1.0 / qcomp=0.60 / qpmin=0 / qpmax=69 / qpstep=4 / cplxblur=20.0 / qblur=0.5 / vbv_maxrate=25000 / vbv_bufsize=25000 / nal_hrd=vbr / ip_ratio=1.40 / aq=1:1.00
Default : Yes
Forced : No
Audio #1
ID : 2
Format : AC-3
Format/Info : Audio Coding 3
Mode extension : CM (complete main)
Format settings, Endianness : Big
Codec ID : A_AC3
Duration : 1h 44mn
Bit rate mode : Constant
Bit rate : 192 Kbps
Channel(s) : 2 channels
Channel positions : Front: L R
Sampling rate : 48.0 KHz
Bit depth : 16 bits
Compression mode : Lossy
Stream size : 143 MiB (3%)
Title : Dub 6-й канал Санкт-Петербург
Language : Russian
Default : Yes
Forced : No
Audio #2
ID : 3
Format : AC-3
Format/Info : Audio Coding 3
Format profile : Dolby Digital
Mode extension : CM (complete main)
Format settings, Endianness : Big
Codec ID : A_AC3
Duration : 1h 44mn
Bit rate mode : Constant
Bit rate : 384 Kbps
Channel(s) : 2 channels
Channel positions : Front: L R
Sampling rate : 48.0 KHz
Bit depth : 16 bits
Compression mode : Lossy
Stream size : 286 MiB (6%)
Title : Original
Language : English
Default : No
Forced : No
Text
ID : 4
Format : UTF-8
Codec ID : S_TEXT/UTF8
Codec ID/Info : UTF-8 Plain Text
Language : English
Default : Yes
Forced : No
Menu
00:00:00.000 : In the Dark
00:06:15.200 : Not Too Sure
00:11:57.000 : At Gunpoint
00:19:06.000 : Reporting to Police
00:24:05.000 : In the Park
00:28:43.000 : Consulting the Doc
00:34:44.003 : Hiring a Dick
00:39:24.000 : Private Nightmare
00:46:58.000 : Who Are You?
00:52:56.007 : Being Played
01:00:44.002 : Coming Close
01:08:07.002 : Bodies Mount
01:12:28.002 : Nowhere to Go
01:17:45.242 : Starting to Remember
01:27:18.076 : A Visit to the Major
01:35:44.003 : On the Hook
01:42:16.543 : All the Pieces Fit
01:43:46.007 : End Titles

Скриншот c названием фильма

Скриншоты


_________________
Показать сообщения:    

Текущее время: Сегодня 23:34

Часовой пояс: GMT



Вы не можете начинать темы
Вы не можете отвечать на сообщения
Вы не можете редактировать свои сообщения
Вы не можете удалять свои сообщения
Вы не можете голосовать в опросах
Вы не можете прикреплять файлы к сообщениям
Вы не можете скачивать файлы