Важное объявление!
У Нас Все раздачи мультитрекерные, при нуле пиров в релизах, можете смело вставать на закачку!
 
Автор Сообщение

HUNTER

Стаж:
4 года 4 месяца
Сообщений:
56719

Репутация: 101

[+] [-]
Вне форума [Профиль] [ЛС]

Мир, любовь и недопонимание / Peace, Love & Misunderstanding / Peace, Love and Misunderstanding
Страна: США
Жанр: драма, комедия
Год выпуска: 2011
Продолжительность: 01:32:22
Перевод 1: Профессиональный (многоголосый закадровый) ТК "Кинопоказ" (компания "Inter Communications" по заказу ЗАО "Национальная спутниковая компания")
Перевод 2: Профессиональный (двухголосый закадровый) студия Elrom
Cубтитры: русские binjak, английские
Оригинальная аудиодорожка: английский
Режиссер: Брюс Бересфорд / Bruce Beresford
В ролях: Джейн Фонда, Джеффри Дин Морган, Чейс Кроуфорд, Элизабет Олсен, Кэтрин Кинер, Кайл МакЛоклен, Розанна Аркетт, Кэтрин МакФи, Нат Фолфф, Мэдди Кормэн
Описание: Диану, нью-йоркскую женщину-адвоката консервативных взглядов, оставляет муж. Для смены обстановки она отправляется вместе с сыном и дочерью в Вудсток к их бабушке, исповедующей мировоззрение хиппи и связи с которой потеряны из-за давней ссоры.
Сэмпл: http://yadi.sk/d/O7JN5YogSXg2j
Тип релиза: BDRip 1080p
Контейнер: MKV
Видео: AVC, 1920x816 (2.35), 23.976 fps, 8 650 Kbps (0.225 bit/pixel)
Аудио 1: AC-3, 48.0 KHz, 2 ch, 192 Kbps, CBR (Russian) - Inter Communications
Аудио 2: AC-3, 48.0 KHz, 2 ch, 192 Kbps, CBR (Russian) - студия Elrom
Аудио 3: DTS, 48.0 KHz, 6 ch, 1 510 Kbps, CBR
Формат субтитров: softsub (SRT)
MediaInfo
Общее
Уникальный идентификатор : 247585801947170368173861973987126912925 (0xBA434A7D80ACFA298A05FFF5C2E7A79D)
Полное имя : K:\Peace.Love.and.Misunderstanding.2011.limited.1080p.bluray.x264-geckos.mkv
Формат : Matroska
Версия формата : Version 2
Размер файла : 6,80 Гбайт
Продолжительность : 1 ч. 32 м.
Общий поток : 10,5 Мбит/сек
Дата кодирования : UTC 2014-06-06 18:18:58
Программа кодирования : mkvmerge v6.1.0 ('Old Devil') built on Mar 2 2013 14:32:37
Библиотека кодирования : libebml v1.3.0 + libmatroska v1.4.0
Видео
Идентификатор : 1
Формат : AVC
Формат/Информация : Advanced Video Codec
Профиль формата : High@L4.1
Параметр CABAC формата : Да
Параметр ReFrames формата : 5 кадров
Идентификатор кодека : V_MPEG4/ISO/AVC
Продолжительность : 1 ч. 32 м.
Битрейт : 8650 Кбит/сек
Ширина : 1920 пикселей
Высота : 816 пикселей
Соотношение сторон : 2,35:1
Режим частоты кадров : Постоянный
Частота кадров : 23,976 кадра/сек
Цветовое пространство : YUV
Субдискретизация насыщенности : 4:2:0
Битовая глубина : 8 бит
Тип развёртки : Прогрессивная
Бит/(Пиксели*Кадры) : 0.230
Размер потока : 5,45 Гбайт (80%)
Библиотека кодирования : x264 core 125 r2208 d9d2288
Настройки программы : cabac=1 / ref=5 / deblock=1:0:0 / analyse=0x3:0x133 / me=umh / subme=7 / psy=1 / psy_rd=1.00:0.00 / mixed_ref=1 / me_range=16 / chroma_me=1 / trellis=1 / 8x8dct=1 / cqm=0 / deadzone=21,11 / fast_pskip=0 / chroma_qp_offset=-2 / threads=12 / lookahead_threads=2 / sliced_threads=0 / nr=0 / decimate=1 / interlaced=0 / bluray_compat=0 / constrained_intra=0 / bframes=3 / b_pyramid=2 / b_adapt=1 / b_bias=0 / direct=1 / weightb=1 / open_gop=0 / weightp=2 / keyint=250 / keyint_min=23 / scenecut=40 / intra_refresh=0 / rc_lookahead=40 / rc=2pass / mbtree=1 / bitrate=8650 / ratetol=1.0 / qcomp=0.60 / qpmin=0 / qpmax=69 / qpstep=4 / cplxblur=20.0 / qblur=0.5 / ip_ratio=1.40 / aq=1:1.00
Язык : English
Default : Да
Forced : Нет
Аудио #1
Идентификатор : 2
Формат : AC-3
Формат/Информация : Audio Coding 3
Расширение режима : CM (complete main)
Параметр Endianness формата : Big
Идентификатор кодека : A_AC3
Продолжительность : 1 ч. 32 м.
Вид битрейта : Постоянный
Битрейт : 192 Кбит/сек
Каналы : 2 канала
Расположение каналов : Front: L R
Частота : 48,0 КГц
Битовая глубина : 16 бит
Метод сжатия : С потерями
Размер потока : 127 Мбайт (2%)
Заголовок : Профессиональный (многоголосый закадровый) Кинопоказ
Язык : Russian
Default : Да
Forced : Нет
Аудио #2
Идентификатор : 3
Формат : AC-3
Формат/Информация : Audio Coding 3
Расширение режима : CM (complete main)
Параметр Endianness формата : Big
Идентификатор кодека : A_AC3
Продолжительность : 1 ч. 32 м.
Вид битрейта : Постоянный
Битрейт : 192 Кбит/сек
Каналы : 2 канала
Расположение каналов : Front: L R
Частота : 48,0 КГц
Битовая глубина : 16 бит
Метод сжатия : С потерями
Размер потока : 127 Мбайт (2%)
Заголовок : Профессиональный (двухголосый, закадровый) студия "Элром"
Язык : Russian
Default : Нет
Forced : Нет
Аудио #3
Идентификатор : 4
Формат : DTS
Формат/Информация : Digital Theater Systems
Режим : 16
Параметр Endianness формата : Big
Идентификатор кодека : A_DTS
Продолжительность : 1 ч. 32 м.
Вид битрейта : Постоянный
Битрейт : 1509 Кбит/сек
Каналы : 6 каналов
Расположение каналов : Front: L C R, Side: L R, LFE
Частота : 48,0 КГц
Битовая глубина : 24 бит
Метод сжатия : С потерями
Размер потока : 997 Мбайт (14%)
Язык : English
Default : Нет
Forced : Нет
Текст #1
Идентификатор : 5
Формат : UTF-8
Идентификатор кодека : S_TEXT/UTF8
Идентификатор кодека/Информация : UTF-8 Plain Text
Язык : Russian
Default : Нет
Forced : Нет
Текст #2
Идентификатор : 6
Формат : UTF-8
Идентификатор кодека : S_TEXT/UTF8
Идентификатор кодека/Информация : UTF-8 Plain Text
Язык : English
Default : Нет
Forced : Нет
Меню
00:00:00.000 : en:00:00:00.000
00:08:03.149 : en:00:08:03.149
00:15:41.065 : en:00:15:41.065
00:23:56.435 : en:00:23:56.435
00:32:03.505 : en:00:32:03.505
00:38:38.983 : en:00:38:38.983
00:47:14.206 : en:00:47:14.206
00:55:05.219 : en:00:55:05.219
01:03:29.222 : en:01:03:29.222
01:13:30.197 : en:01:13:30.197
01:18:05.556 : en:01:18:05.556
01:27:24.739 : en:01:27:24.739
Скриншоты

_________________
Показать сообщения:    

Текущее время: Сегодня 01:13

Часовой пояс: GMT



Вы не можете начинать темы
Вы не можете отвечать на сообщения
Вы не можете редактировать свои сообщения
Вы не можете удалять свои сообщения
Вы не можете голосовать в опросах
Вы не можете прикреплять файлы к сообщениям
Вы не можете скачивать файлы