Важное объявление!
У Нас Все раздачи мультитрекерные, при нуле пиров в релизах, можете смело вставать на закачку!
 
Автор Сообщение

HUNTER

Стаж:
4 года 4 месяца
Сообщений:
56734

Репутация: 101

[+] [-]
Вне форума [Профиль] [ЛС]

Мир будущего / Futureworld
Год выпуска: 1976
Страна: США
Жанр: фантастика, триллер
Продолжительность: 1:47:29
Перевод: Профессиональный (двухголосый) НТВ+
Русские субтитры: нет
Режиссер: Ричард Т. Хеффрон / Richard T. Heffron
В ролях: Питер Фонда, Блайт Даннер, Артур Хилл, Юл Бриннер, Джон П. Райан, Стюарт Марголин, Аллен Ладден, Роберт Корнтуэйт, Анджела Грин, Даррел Ларсон
Описание: Технологический триллер о курортном отеле, обслуживающий персонал которого состоит из роботов. Фонда в роли журналиста, ведущего расследование о владельце отеля. Владелец отеля замыслил править всем миром.
В городе роботов «Делос», в котором недавно произошло «восстание машин», восстановлен порядок, и журналисты приглашены лично засвидетельствовать, что отныне все спокойно в мире Запада. В действительности два журналиста, Чак Браунинг и Трейси Баллард, раскрывают секрет города: гости города, среди которых немало влиятельных политиков и крупных бизнесменов, похищены и заменены роботами, запрограммированными, чтобы спасти человечество от разрушительного безумия человека. К сожалению, они сами далеки от совершенства. Двое журналистов уничтожают своих двойников и спасаются…
Один из первых фильмов, использовавших компьютерную анимацию. Юл Бриннер показывается на мгновение только в одном эпизоде. Это последний его фильм.
Доп. информация:
СЭМПЛ
Качество: BDRemux (GER)
Формат: MKV
Видео: MPEG-4 AVC Video 21975 kbps 1080p / 23,976 fps / 16:9 / High Profile 4.1
Аудио: Russian / Dolby Digital Audio / 2.0 / 48 kHz / 192 kbps
Аудио: DTS-HD Master Audio English 2.0 / 48 kHz / 946 kbps / 16-bit (DTS Core: 2.0 / 48 kHz / 768 kbps / 16-bit)
текст читали Людмила Гнилова и Олег Вирозуб

MI

General
Unique ID : 222740021935115251300928177849653419009 (0xA7922AF552AB744C8F761291840A5C01)
Complete name : G:\bluray\Futureworld.1976.1080p.Bluray.GER.AVC.Remux.mkv
Format : Matroska
Format version : Version 2
File size : 17.4 GiB
Duration : 1h 47mn
Overall bit rate : 23.1 Mbps
Movie name : Futureworld.1976.1080p.Bluray.GER.AVC.Remux
Encoded date : UTC 2011-12-18 12:22:31
Writing application : mkvmerge v4.9.1 ('Ich will') сборка от Jul 11 2011 23:53:15
Writing library : libebml v1.2.1 + libmatroska v1.1.1
Video
ID : 1
Format : AVC
Format/Info : Advanced Video Codec
Format profile : High@L4.1
Format settings, CABAC : Yes
Format settings, ReFrames : 4 frames
Codec ID : V_MPEG4/ISO/AVC
Duration : 1h 47mn
Bit rate mode : Variable
Bit rate : 21.6 Mbps
Maximum bit rate : 30.0 Mbps
Width : 1 920 pixels
Height : 1 080 pixels
Display aspect ratio : 16:9
Frame rate : 23.976 fps
Standard : NTSC
Color space : YUV
Chroma subsampling : 4:2:0
Bit depth : 8 bits
Scan type : Progressive
Bits/(Pixel*Frame) : 0.434
Stream size : 16.2 GiB (93%)
Title : uralmix
Color primaries : BT.709-5, BT.1361, IEC 61966-2-4, SMPTE RP177
Transfer characteristics : BT.709-5, BT.1361
Matrix coefficients : BT.709-5, BT.1361, IEC 61966-2-4 709, SMPTE RP177
Audio #1
ID : 2
Format : AC-3
Format/Info : Audio Coding 3
Mode extension : CM (complete main)
Codec ID : A_AC3
Duration : 1h 47mn
Bit rate mode : Constant
Bit rate : 192 Kbps
Channel(s) : 2 channels
Channel positions : Front: L R
Sampling rate : 48.0 KHz
Bit depth : 16 bits
Compression mode : Lossy
Stream size : 148 MiB (1%)
Title : НТВ+ (Людмила Гнилова и Олег Вирозуб)
Language : Russian
Audio #2
ID : 3
Format : DTS
Format/Info : Digital Theater Systems
Format profile : MA / Core
Codec ID : A_DTS
Duration : 1h 47mn
Bit rate mode : Variable
Bit rate : 875 Kbps / 755 Kbps
Channel(s) : 2 channels
Channel positions : Front: L R
Sampling rate : 48.0 KHz
Bit depth : 16 bits
Compression mode : Lossless / Lossy
Language : English
Menu
00:00:00.000 : en:00:00:00.000
00:03:36.925 : en:00:03:36.925
00:11:08.835 : en:00:11:08.835
00:16:04.839 : en:00:16:04.839
00:22:24.426 : en:00:22:24.426
00:27:41.493 : en:00:27:41.493
00:32:29.698 : en:00:32:29.698
00:38:04.741 : en:00:38:04.741
00:43:03.414 : en:00:43:03.414
00:50:23.062 : en:00:50:23.062
00:58:22.874 : en:00:58:22.874
01:04:49.385 : en:01:04:49.385
01:12:36.852 : en:01:12:36.852
01:21:20.918 : en:01:21:20.918
01:31:40.787 : en:01:31:40.787
01:44:45.821 : en:01:44:45.821

Скриншоты


_________________
Показать сообщения:    

Текущее время: Сегодня 06:18

Часовой пояс: GMT



Вы не можете начинать темы
Вы не можете отвечать на сообщения
Вы не можете редактировать свои сообщения
Вы не можете удалять свои сообщения
Вы не можете голосовать в опросах
Вы не можете прикреплять файлы к сообщениям
Вы не можете скачивать файлы