Важное объявление!
У Нас Все раздачи мультитрекерные, при нуле пиров в релизах, можете смело вставать на закачку!
 
Автор Сообщение

HUNTER

Стаж:
4 года 4 месяца
Сообщений:
56790

Репутация: 101

[+] [-]
Вне форума [Профиль] [ЛС]

Министерство страхаMinistry of Fear
Страна: США
Жанр: фильм-нуар, триллер, драма, криминал, детектив
Год выпуска: 1944
Продолжительность: 01:27:08
Перевод: Профессиональный (двухголосый закадровый)
Cубтитры: русские, английские [SDH]
Оригинальная аудиодорожка: английский
-
Режиссер: Фриц Ланг / Fritz Lang
В ролях: Рэй Милланд, Марджори Рейнольдс, Карл Эсмонд, Хиллари Брук, Перси Уорам, Дэн Дюрьи, Алан Напье, Эрскин Сэнфорд, Гарри Аллен, Фрэнк Бэйкер
-
Описание: Стивен Нил, проведший два года в психиатрической лечебнице, выходит на свободу накануне нападения немцев на Лондон. Случайно приняв участие в благотворительной лотерее, он попадает в самый центр шпионской паутины, опутывающей Англию. Ему кажется, что все окружающие - нацистские шпионы, ни во что не ставящие человеческие жизни, а его особенно. Полиция подозревает Стивена в серии убийств, кольцо вокруг него сжимается...
Сможет ли он доверять брату и сестре Хилф, двум единственным людям, которые хотят помочь ему, или же и они - шпионы?
[img]https://rating.kinopoisk.ru/26390.gif[/img]
Тип релиза: BDRemux 1080p
Контейнер: MKV
Видео: MPEG-4 AVC / NTSC 16:9 / 1920x1080 (1,37:1) / 34882 kbps / 23,976 fps / 0.702 bit/pixel / High@L4.1
Аудио 1: Russian / Dolby Digital Audio / 2.0 Ch / 48 kHz / 160 kbps / 16 bit / DVO
Аудио 2: English / LPCM Audio / 1.0 Ch / 48 kHz / 1152 kbps / 24 bit / Original
Формат субтитров: softsub (SRT)
Навигация по главам: есть

Примечание

Код:
Русские субтитры пересобрал по таймингам оригинальных английских сабов с BD-диска. Исправлена грамматика.

MediaInfo

Код:
Общее
Уникальный идентификатор                 : 230352641969483366584493497260715811319 (0xAD4C4E1AA02585C183C8546A2A7821F7)
Полное имя                               : F:\Ministry of Fear.1944.CRITERION.BDRemux.1080p.mkv
Формат                                   : Matroska
Версия формата                           : Version 4 / Version 2
Размер файла                             : 22,0 Гбайт
Продолжительность                        : 1 ч. 27 м.
Режим общего битрейта                    : Переменный
Общий поток                              : 36,2 Мбит/сек
Название фильма                          : Release for RuTracker © flaSI-I
Дата кодирования                         : UTC 2016-08-06 16:52:16
Программа кодирования                    : mkvmerge v9.3.1 ('Mask Machine') 64bit
Библиотека кодирования                   : libebml v1.3.4 + libmatroska v1.4.5
Видео
Идентификатор                            : 1
Формат                                   : AVC
Формат/Информация                        : Advanced Video Codec
Профиль формата                          : High@L4.1
Параметр CABAC формата                   : Да
Параметр ReFrames формата                : 4 кадра
Идентификатор кодека                     : V_MPEG4/ISO/AVC
Продолжительность                        : 1 ч. 27 м.
Вид битрейта                             : Переменный
Битрейт                                  : 34,9 Мбит/сек
Максимальный битрейт                     : 37,0 Мбит/сек
Ширина                                   : 1920 пикселей
Высота                                   : 1080 пикселей
Соотношение сторон                       : 16:9
Режим частоты кадров                     : Постоянный
Частота кадров                           : 23,976 (24000/1001) кадра/сек
Цветовое пространство                    : YUV
Субдискретизация насыщенности            : 4:2:0
Битовая глубина                          : 8 бит
Тип развёртки                            : Прогрессивная
Бит/(Пиксели*Кадры)                      : 0.702
Размер потока                            : 21,2 Гбайт (96%)
Язык                                     : English
Default                                  : Да
Forced                                   : Нет
Аудио #1
Идентификатор                            : 2
Формат                                   : AC-3
Формат/Информация                        : Audio Coding 3
Расширение режима                        : CM (complete main)
Параметр Endianness формата              : Big
Идентификатор кодека                     : A_AC3
Продолжительность                        : 1 ч. 27 м.
Вид битрейта                             : Постоянный
Битрейт                                  : 160 Кбит/сек
Каналы                                   : 2 канала
Расположение каналов                     : Front: L R
Частота                                  : 48,0 КГц
Частота кадров                           : 31,250 кадров/сек (1536 spf)
Метод сжатия                             : С потерями
Размер потока                            : 99,7 Мбайт (0%)
Заголовок                                : DVO
Язык                                     : Russian
Default                                  : Да
Forced                                   : Нет
Аудио #2
Идентификатор                            : 3
Формат                                   : PCM
Идентификатор кодека                     : A_PCM/INT/LIT
Продолжительность                        : 1 ч. 27 м.
Вид битрейта                             : Постоянный
Битрейт                                  : 1152 Кбит/сек
Частота                                  : 48,0 КГц
Частота кадров                           : 32,000 кадра/сек (1500 spf)
Битовая глубина                          : 24 бит
Размер потока                            : 718 Мбайт (3%)
Заголовок                                : Original
Язык                                     : English
Default                                  : Нет
Forced                                   : Нет
Текст #1
Идентификатор                            : 4
Формат                                   : UTF-8
Идентификатор кодека                     : S_TEXT/UTF8
Идентификатор кодека/Информация          : UTF-8 Plain Text
Продолжительность                        : 1 ч. 26 м.
Битрейт                                  : 80 бит/сек
Count of elements                        : 701
Размер потока                            : 50,9 Кбайт (0%)
Заголовок                                : Full
Язык                                     : Russian
Default                                  : Нет
Forced                                   : Нет
Текст #2
Идентификатор                            : 5
Формат                                   : UTF-8
Идентификатор кодека                     : S_TEXT/UTF8
Идентификатор кодека/Информация          : UTF-8 Plain Text
Продолжительность                        : 1 ч. 24 м.
Битрейт                                  : 55 бит/сек
Count of elements                        : 992
Размер потока                            : 34,4 Кбайт (0%)
Заголовок                                : Original / SDH
Язык                                     : English
Default                                  : Нет
Forced                                   : Нет
Меню
00:00:00.000                             : en:Freedom
00:04:11.376                             : en:A Good Cause
00:06:47.698                             : en:Right Weight, Wrong Man
00:11:04.413                             : en:Strangers on a Train
00:18:01.705                             : en:Eye for Hire
00:20:43.075                             : en:Carla and Willi
00:25:40.705                             : en:Seance
00:33:41.561                             : en:Unique Farewell
00:35:05.728                             : en:Watched
00:37:16.609                             : en:Underground
00:44:55.984                             : en:Security and Spies
00:48:49.343                             : en:"You Don't Trust Me"
00:53:18.570                             : en:Fishy Files
00:56:50.782                             : en:Quiet Life Interrupted
01:00:05.310                             : en:Set Up
01:02:09.267                             : en:Scotland Yard
01:06:35.449                             : en:Sifting for Crumbs
01:11:49.305                             : en:Td-541-A
01:14:09.570                             : en:Travers, the Tailor
01:19:54.831                             : en:The Strain of Necessity

Скриншоты


_________________
Показать сообщения:    

Текущее время: Сегодня 09:00

Часовой пояс: GMT



Вы не можете начинать темы
Вы не можете отвечать на сообщения
Вы не можете редактировать свои сообщения
Вы не можете удалять свои сообщения
Вы не можете голосовать в опросах
Вы не можете прикреплять файлы к сообщениям
Вы не можете скачивать файлы