Важное объявление!
У Нас Все раздачи мультитрекерные, при нуле пиров в релизах, можете смело вставать на закачку!
 
Автор Сообщение

HUNTER

Стаж:
4 года 4 месяца
Сообщений:
56733

Репутация: 101

[+] [-]
Вне форума [Профиль] [ЛС]

Миллион способов потерять голову / Миллион способов умереть на Диком Западе / A Million Ways to Die in the West / Unrated
-BDRip-AVC | BDRip-1080p | BDRemux-1080p | Audio-Страна: США
Студия: Bluegrass Films, Fuzzy Door Productions, Media Rights Capital
Жанр: комедия, вестерн
Год выпуска: 2014
Продолжительность: 02:14:44
Перевод 1: Профессиональный (дублированный) + DVO Студия "Paradox" (на расширенные места) - присутствует ненормативная лексика
Перевод 2: Профессиональный (многоголосый закадровый) Filiza Studio + AVO Матвеев [Doctor Joker] (на расширенные места) - присутствует ненормативная лексика
Перевод 3: Одноголосый (закадровый) Матвеев (Doctor Joker) - присутствует ненормативная лексика
Cубтитры: русские, английские
Оригинальная аудиодорожка: английский
Режиссер: Сет МакФарлейн / Seth MacFarlane
В ролях: Сет МакФарлейн, Шарлиз Терон, Аманда Сайфред, Лиам Нисон, Джованни Рибизи, Нил Патрик Харрис, Сара Силверман, Кристофер Хэйген, Уэс Стьюди, Мэтт Кларк
Описание: Угораздило же влюбиться не в том месте и не в то время. Здесь хамят в ресторанах, о горячей воде слагают легенды, да и с транспортом полный коллапс. Но у таинственной незнакомки отменная фигура, да и стреляет она без промаха. Кто же по своей воле откажется от такой красотки?
Доп. информация: UNRATED - Расширенная версия, длиннее театральной на ~19 минут! Полный перевод!
Расширенные места в Дублированном переводе овучены студией "Paradox".
Полный перевод MVO Filiza Studio сделал сам, путём склейки театральной и расширенной версий фильма. За основу была взята звуковая дорожка из данной раздачи. Был произведён небольшой "ремастеринг" звука, на расширенные места перевод Алексея Матвеева "Doctor Joker".
Перевод А. Матвеева "Doctor Joker" доступен благодаря: Старый, GodFather, olddrinker, boldino, Roy33, save2x2, R.U., 7654, Shrooms, Lecter1975, Wa1ker, sancrew, napaHouk

Сэмпл: http://rusfolder.com/43726172
Тип релиза: BDRip 1080p
Контейнер: MKV
Видео: BDRip (1080p) / MPEG-4 AVC/H.264 / 10.1 mbps / 1920x800 / 23.976 fps
Аудио 1: Rus / AC3 / 6 ch / 448 kbps / 48 kHz - DUB + DVO Paradox [вставки]
Аудио 2: Rus / AC3 / 2 ch / 192 kbps / 44,1 kHz - MVO Filiza Studio + VO Doctor Joker [вставки]
Аудио 3: Rus / DTS / 6 ch / 1510 kbps / 48 kHz - VO Doctor Joker
Аудио 4: Eng / DTS / 6 ch / 1510 kbps / 48 kHz
Формат субтитров: softsub (SRT)
Доп. информация о субтитрах: Русские (forced [песня], full [2 варианта]), Английские (full)
#Сохранены оригинальные чаптеры как на Blu-ray

MediaInfo

General
Unique ID : 217404817605606195179738272705820833891 (0xA38EA51373C89683A1AEEFD58E9D3863)
Complete name : J:\Torrents\A.Million.Ways.to.Die.in.the.West.2014.Unrated.DUAL.BDRip.2,91Gb.XviD.AC3\Миллион способов потерять голову (2014) BDRip-1080p (Расширенная версия).mkv
Format : Matroska
Format version : Version 2
File size : 12.9 GiB
Duration : 2h 14mn
Overall bit rate : 13.7 Mbps
Movie name : Миллион способов умереть на Диком Западе [Расширенная версия] / A Million Ways to Die in the West [Unrated] (2014)
Encoded date : UTC 2015-08-29 18:43:44
Writing application : mkvmerge v5.5.0 ('Healer') built on Apr 24 2012 23:47:03
Writing library : libebml v1.2.3 + libmatroska v1.3.0
Attachements : cover.png
Video
ID : 1
Format : AVC
Format/Info : Advanced Video Codec
Format profile : High@L4.1
Format settings, CABAC : Yes
Format settings, ReFrames : 5 frames
Codec ID : V_MPEG4/ISO/AVC
Duration : 2h 14mn
Bit rate : 10.1 Mbps
Width : 1 920 pixels
Height : 800 pixels
Display aspect ratio : 2.40:1
Frame rate mode : Constant
Frame rate : 23.976 fps
Color space : YUV
Chroma subsampling : 4:2:0
Bit depth : 8 bits
Scan type : Progressive
Bits/(Pixel*Frame) : 0.273
Stream size : 9.21 GiB (71%)
Title : BDRip (1080p) / MPEG-4 AVC/H.264 / 10.1 mbps / 1920x800 / 23.976 fps
Writing library : x264 core 142 r2431 ac76440
Encoding settings : cabac=1 / ref=5 / deblock=1:-3:-3 / analyse=0x3:0x113 / me=umh / subme=10 / psy=1 / psy_rd=1.00:0.05 / mixed_ref=1 / me_range=32 / chroma_me=1 / trellis=2 / 8x8dct=1 / cqm=0 / deadzone=21,11 / fast_pskip=0 / chroma_qp_offset=-2 / threads=18 / lookahead_threads=1 / sliced_threads=0 / nr=0 / decimate=1 / interlaced=0 / bluray_compat=0 / constrained_intra=0 / bframes=5 / b_pyramid=2 / b_adapt=2 / b_bias=0 / direct=3 / weightb=1 / open_gop=0 / weightp=2 / keyint=250 / keyint_min=23 / scenecut=40 / intra_refresh=0 / rc=2pass / mbtree=0 / bitrate=10058 / ratetol=1.0 / qcomp=0.70 / qpmin=0 / qpmax=69 / qpstep=4 / cplxblur=20.0 / qblur=0.5 / ip_ratio=1.40 / pb_ratio=1.30 / aq=2:0.90
Language : English
Default : Yes
Forced : Yes
Audio #1
ID : 2
Format : AC-3
Format/Info : Audio Coding 3
Mode extension : CM (complete main)
Format settings, Endianness : Big
Codec ID : A_AC3
Duration : 2h 14mn
Bit rate mode : Constant
Bit rate : 448 Kbps
Channel(s) : 6 channels
Channel positions : Front: L C R, Side: L R, LFE
Sampling rate : 48.0 KHz
Compression mode : Lossy
Stream size : 432 MiB (3%)
Title : DUB + DVO Paradox [вставки] (Rus) / AC3 / 6 ch / 448 kbps / 48.0 kHz
Language : Russian
Default : Yes
Forced : Yes
Audio #2
ID : 3
Format : AC-3
Format/Info : Audio Coding 3
Mode extension : CM (complete main)
Format settings, Endianness : Big
Codec ID : A_AC3
Duration : 2h 14mn
Bit rate mode : Constant
Bit rate : 192 Kbps
Channel(s) : 2 channels
Channel positions : Front: L R
Sampling rate : 44.1 KHz
Compression mode : Lossy
Stream size : 185 MiB (1%)
Title : MVO Filiza Studio + AVO Матвеев (Doctor Joker) [вставки] (Rus) / AC3 / 2 ch / 192 kbps / 44.1 kHz
Language : Russian
Default : No
Forced : No
Audio #3
ID : 4
Format : DTS
Format/Info : Digital Theater Systems
Mode : 16
Format settings, Endianness : Big
Codec ID : A_DTS
Duration : 2h 14mn
Bit rate mode : Constant
Bit rate : 1 509 Kbps
Channel(s) : 6 channels
Channel positions : Front: L C R, Side: L R, LFE
Sampling rate : 48.0 KHz
Bit depth : 24 bits
Compression mode : Lossy
Stream size : 1.42 GiB (11%)
Title : AVO Матвеев [Doctor Joker] (Rus) / DTS / 6 ch / 1510 kbps / 48.0 kHz
Language : Russian
Default : No
Forced : No
Audio #4
ID : 5
Format : DTS
Format/Info : Digital Theater Systems
Mode : 16
Format settings, Endianness : Big
Codec ID : A_DTS
Duration : 2h 14mn
Bit rate mode : Constant
Bit rate : 1 509 Kbps
Channel(s) : 6 channels
Channel positions : Front: L C R, Side: L R, LFE
Sampling rate : 48.0 KHz
Bit depth : 24 bits
Compression mode : Lossy
Stream size : 1.42 GiB (11%)
Title : Original (Eng) / DTS / 6 ch / 1510 kbps / 48.0 kHz
Language : English
Default : No
Forced : No
Text #1
ID : 6
Format : UTF-8
Codec ID : S_TEXT/UTF8
Codec ID/Info : UTF-8 Plain Text
Title : Forced [песня] (Rus) / S_TEXT/UTF8
Language : Russian
Default : No
Forced : No
Text #2
ID : 7
Format : UTF-8
Codec ID : S_TEXT/UTF8
Codec ID/Info : UTF-8 Plain Text
Title : Full (Rus) / S_TEXT/UTF8
Language : Russian
Default : No
Forced : No
Text #3
ID : 8
Format : UTF-8
Codec ID : S_TEXT/UTF8
Codec ID/Info : UTF-8 Plain Text
Title : Full [Матвеев (Doctor Joker)] (Rus) / S_TEXT/UTF8
Language : Russian
Default : No
Forced : No
Text #4
ID : 9
Format : UTF-8
Codec ID : S_TEXT/UTF8
Codec ID/Info : UTF-8 Plain Text
Title : Full (Eng) / S_TEXT/UTF8
Language : English
Default : No
Forced : No
Menu
00:00:00.000 : en:00:00:00.000
00:03:02.140 : en:00:03:02.140
00:10:16.115 : en:00:10:16.115
00:14:17.315 : en:00:14:17.315
00:20:15.214 : en:00:20:15.214
00:24:56.495 : en:00:24:56.495
00:35:36.843 : en:00:35:36.843
00:42:33.843 : en:00:42:33.843
00:48:56.225 : en:00:48:56.225
00:55:28.533 : en:00:55:28.533
01:02:34.125 : en:01:02:34.125
01:13:24.025 : en:01:13:24.025
01:22:45.961 : en:01:22:45.961
01:30:53.031 : en:01:30:53.031
01:35:20.089 : en:01:35:20.089
01:42:03.659 : en:01:42:03.659
01:45:44.380 : en:01:45:44.380
01:53:38.478 : en:01:53:38.478
02:01:40.585 : en:02:01:40.585
02:08:31.162 : en:02:08:31.162

Скриншот c названием фильма

Скриншоты


_________________
Показать сообщения:    

Текущее время: Сегодня 22:29

Часовой пояс: GMT



Вы не можете начинать темы
Вы не можете отвечать на сообщения
Вы не можете редактировать свои сообщения
Вы не можете удалять свои сообщения
Вы не можете голосовать в опросах
Вы не можете прикреплять файлы к сообщениям
Вы не можете скачивать файлы