Важное объявление!
У Нас Все раздачи мультитрекерные, при нуле пиров в релизах, можете смело вставать на закачку!
 
Автор Сообщение

HUNTER

Стаж:
4 года 4 месяца
Сообщений:
56853

Репутация: 101

[+] [-]
Вне форума [Профиль] [ЛС]

Микки: Однажды под Рождество / Mickey's Once Upon a Christmas-
Страна: США
Жанр: мультфильм, фэнтези, комедия, семейный
Продолжительность: 01:05:53
Год выпуска: 1999
Перевод: Профессиональный (полное дублирование)
Субтитры: Есть-Режиссер: Джан Фалкенштейн / Jun Falkenstein, Алекс Манн / Alex Mann, Брэдли Рэймонд / Bradley Raymond-Роли озвучивали: Келси Грэммер (рассказчик, озвучка), Уэйн Оллвэйн (Mickey Mouse, озвучка), Расси Тейлор (Minnie Mouse, Huey, Dewey, Louie, озвучка), Тони Ансельмо (Donald Duck, озвучка), Дайан Мишель (Daisy Duck (The Gift of Magi), озвучка), Тресс МакНилл (Chip, Daisy, Aunt Gurtie, озвучка), Алан Янг (Uncle Scrooge McDuck, озвучка), Билл Фармер (Goofy, Pluto, озвучка), Кори Бертон (Dale, озвучка), Шон Флемминг (Young Max Goof, озвучка), Джим Каммингс (Pete, Postman, Santa, Police, Fire Chief, Dad, Man, озвучка), Джефф Беннетт (Mortimer, Firefighter #2, Store Announcer, Man, Customer, Dad, озвучка)-Роли дублировали: Геннадий Богачёв (рассказчик), Максим Сергеев (Mickey Mouse), Снежина Копрова (Huey / Dewey / Louie; Daisy), Сауле Искакова (Minnie Mouse), Елена Ставрогина (Chip, Daisy, Aunt Gurtie (Aunt Gurtie)), Валерий Кухарешин (Uncle Scrooge McDuck), Михаил Вассербаум (Goofy), Станислав Ревазов (Young Max Goof), Вадим Никитин (Pete), Александр Баргман (Mortimer)-Описание: Микки, Минни и их знаменитые друзья Гуфи, Дональд, Дейзи и Плуто собираются вместе, чтобы рассказать в трех удивительных историях о волшебстве Рождества.
Мини и Микки расскажут о том, как однажды решили подарить друг другу незабываемое Рождество. Гуфи и Макс поделятся впечатлениями о своих рождественских приключениях, а еще о том, как к ним в гости пришел настоящий Санта Клаус.
Племянники Дональда, Хьюи, Дьюи и Лун вспоминают те дни, когда они мечтали о наступлении Рождества каждый день, что, в конце концов, привело к веселой катастрофе.
-Рейтинг:
-Мировая премьера: 7 декабря 1999
Релиз на DVD: 16 ноября 2010, «Уолт Дисней Компани СНГ»-Релиз: -Качество: WEB-DLRip
Формат: AVI
Видео: 720x400 (1.80:1), 23.976 fps, XviD build 65 ~2386 kbps avg, 0.34 bit/pixel
Аудио 1: 48 kHz, AC3 Dolby Digital, 3/2 (L,C,R,l,r) + LFE ch, ~384 kbps |Дубляж, iTunes Russia|
Аудио 2: 48 kHz, AC3 Dolby Digital, 2/0 (L,R) ch, ~192 kbps - Eng
Субтитры: Русские, Русские (форсированные)
-

MI

Format : AVIFormat/Info : Audio Video InterleaveFile size : 1.37 GiBDuration : 1h 5mnOverall bit rate : 2 977 KbpsWriting application : VirtualDubMod 1.5.10.3 | www.virtualdub-fr.org || (build 2550/release)Writing library : VirtualDubMod build 2550/release
VideoID : 0Format : MPEG-4 VisualFormat profile : Advanced Simple@L5Format settings, BVOP : 2Format settings, QPel : NoFormat settings, GMC : No warppointsFormat settings, Matrix : CustomCodec ID : XVIDCodec ID/Hint : XviDDuration : 1h 5mnBit rate : 2 388 KbpsWidth : 720 pixelsHeight : 400 pixelsDisplay aspect ratio : 16:9Frame rate : 23.976 fpsColor space : YUVChroma subsampling : 4:2:0Bit depth : 8 bitsScan type : ProgressiveCompression mode : LossyBits/(Pixel*Frame) : 0.346Stream size : 1.10 GiB (80%)Writing library : XviD 65
Audio #1ID : 1Format : AC-3Format/Info : Audio Coding 3Mode extension : CM (complete main)Format settings, Endianness : BigCodec ID : 2000Duration : 1h 5mnBit rate mode : ConstantBit rate : 384 KbpsChannel(s) : 6 channelsChannel positions : Front: L C R, Side: L R, LFESampling rate : 48.0 KHzBit depth : 16 bitsCompression mode : LossyStream size : 181 MiB (13%)Alignment : Split accross interleavesInterleave, duration : 42 ms (1.00 video frame)Interleave, preload duration : 500 ms
Audio #2ID : 2Format : AC-3Format/Info : Audio Coding 3Mode extension : CM (complete main)Format settings, Endianness : BigCodec ID : 2000Duration : 1h 5mnBit rate mode : ConstantBit rate : 192 KbpsChannel(s) : 2 channelsChannel positions : Front: L RSampling rate : 48.0 KHzBit depth : 16 bitsCompression mode : LossyStream size : 90.3 MiB (6%)Alignment : Split accross interleavesInterleave, duration : 42 ms (1.00 video frame)Interleave, preload duration : 500 ms
Все раздачи мультфильма

_________________
Показать сообщения:    

Текущее время: Сегодня 11:58

Часовой пояс: GMT



Вы не можете начинать темы
Вы не можете отвечать на сообщения
Вы не можете редактировать свои сообщения
Вы не можете удалять свои сообщения
Вы не можете голосовать в опросах
Вы не можете прикреплять файлы к сообщениям
Вы не можете скачивать файлы
Наши партнеры: интернет магазин Ивановского трикотажа textilla.ru