Важное объявление!
У Нас Все раздачи мультитрекерные, при нуле пиров в релизах, можете смело вставать на закачку!
 
Автор Сообщение

HUNTER

Стаж:
4 года 4 месяца
Сообщений:
56734

Репутация: 101

[+] [-]
Вне форума [Профиль] [ЛС]

Микки: Однажды под Рождество / Mickey's Once Upon a Christmas-
Страна: США
Жанр: мультфильм, фэнтези, комедия, семейный
Продолжительность: 01:05:53
Год выпуска: 1999
Перевод: Профессиональный (полное дублирование)
Русские субтитры: Есть-Режиссер: Джан Фалкенштейн / Jun Falkenstein, Алекс Манн / Alex Mann, Брэдли Рэймонд / Bradley Raymond-Роли озвучивали: Келси Грэммер (рассказчик, озвучка), Уэйн Оллвэйн (Mickey Mouse, озвучка), Расси Тейлор (Minnie Mouse, Huey, Dewey, Louie, озвучка), Тони Ансельмо (Donald Duck, озвучка), Дайан Мишель (Daisy Duck (The Gift of Magi), озвучка), Тресс МакНилл (Chip, Daisy, Aunt Gurtie, озвучка), Алан Янг (Uncle Scrooge McDuck, озвучка), Билл Фармер (Goofy, Pluto, озвучка), Кори Бертон (Dale, озвучка), Шон Флемминг (Young Max Goof, озвучка), Джим Каммингс (Pete, Postman, Santa, Police, Fire Chief, Dad, Man, озвучка), Джефф Беннетт (Mortimer, Firefighter #2, Store Announcer, Man, Customer, Dad, озвучка)-Роли дублировали: Геннадий Богачёв (рассказчик), Максим Сергеев (Mickey Mouse), Снежина Копрова (Huey / Dewey / Louie; Daisy), Сауле Искакова (Minnie Mouse), Елена Ставрогина (Chip, Daisy, Aunt Gurtie (Aunt Gurtie)), Валерий Кухарешин (Uncle Scrooge McDuck), Михаил Вассербаум (Goofy), Станислав Ревазов (Young Max Goof), Вадим Никитин (Pete), Александр Баргман (Mortimer)-Описание: Микки, Минни и их знаменитые друзья Гуфи, Дональд, Дейзи и Плуто собираются вместе, чтобы рассказать в трех удивительных историях о волшебстве Рождества.
Мини и Микки расскажут о том, как однажды решили подарить друг другу незабываемое Рождество. Гуфи и Макс поделятся впечатлениями о своих рождественских приключениях, а еще о том, как к ним в гости пришел настоящий Санта Клаус.
Племянники Дональда, Хьюи, Дьюи и Лун вспоминают те дни, когда они мечтали о наступлении Рождества каждый день, что, в конце концов, привело к веселой катастрофе.
-Рейтинг:
-Мировая премьера: 7 декабря 1999
Релиз на DVD: 16 ноября 2010, «Уолт Дисней Компани СНГ»-Релиз: -Доп. информация: К исходному WEB-DL (Sunny@hdclub) добавлена английская 5.1 дорожка и английские субтитры с DVD. Работа со звуком и субтитрами - xfiles.-Качество: WEB-DL 720p
Формат: MKV
Видео: 1280x718 at 23.976 fps, MPEG-4 AVC, ~4000 kbps avg
Аудио 1: 48 kHz, AC3, 3/2 (L,C,R,l,r) + LFE ch, ~384.00 kbps avg |Дубляж, iTunes Russia| - Rus
Аудио 2: 48 kHz, AC3, 3/2 (L,C,R,l,r) + LFE ch, ~384.00 kbps avg |DVD| - Eng
Аудио 3: 48 kHz, AAC, 2/0 (L,R) ch, ~160.00 kbps avg |iTunes Russia|- Eng
Субтитры: Русские, Русские (форсированные), English
-

MI

GeneralUnique ID : 239923280348318929399866564988172101982 (0xB47F8B01E81E3D33BD14DC801C45E95E)Complete name : Mickey's.Once.Upon.a.Christmas.1999.720p.WEB-DL.Rus.Eng-rutracker.mkvFormat : MatroskaFormat version : Version 4 / Version 2File size : 2.33 GiBDuration : 1h 5mnOverall bit rate : 5 067 KbpsMovie name : Mickey's Once Upon a Christmas (1999) - Release for RutrackerEncoded date : UTC 2014-04-13 16:53:17Writing application : mkvmerge v6.5.0 ('Isn't she lovely') built on Oct 20 2013 12:50:05Writing library : libebml v1.3.0 + libmatroska v1.4.1
VideoID : 1Format : AVCFormat/Info : Advanced Video CodecFormat profile : High@L3.1Format settings, CABAC : NoFormat settings, ReFrames : 2 framesCodec ID : V_MPEG4/ISO/AVCDuration : 1h 5mnWidth : 1 280 pixelsHeight : 718 pixelsDisplay aspect ratio : 16:9Frame rate mode : ConstantFrame rate : 23.976 fpsColor space : YUVChroma subsampling : 4:2:0Bit depth : 8 bitsScan type : ProgressiveTitle : http://rutracker.org/forum/viewtopic.php?t=4715638Language : EnglishDefault : YesForced : NoColor primaries : BT.709Transfer characteristics : BT.709Matrix coefficients : BT.709
Audio #1ID : 2Format : AC-3Format/Info : Audio Coding 3Mode extension : CM (complete main)Format settings, Endianness : BigCodec ID : A_AC3Duration : 1h 5mnBit rate mode : ConstantBit rate : 384 KbpsChannel(s) : 6 channelsChannel positions : Front: L C R, Side: L R, LFESampling rate : 48.0 KHzBit depth : 16 bitsCompression mode : LossyStream size : 181 MiB (8%)Title : AC3 5.1 @ 384 kbps - DUB, iTunesLanguage : RussianDefault : YesForced : No
Audio #2ID : 3Format : AC-3Format/Info : Audio Coding 3Mode extension : CM (complete main)Format settings, Endianness : BigCodec ID : A_AC3Duration : 1h 5mnBit rate mode : ConstantBit rate : 384 KbpsChannel(s) : 6 channelsChannel positions : Front: L C R, Side: L R, LFESampling rate : 48.0 KHzBit depth : 16 bitsCompression mode : LossyStream size : 181 MiB (8%)Title : AC3 5.1 @ 384 kbps - ENG, DVDLanguage : EnglishDefault : NoForced : No
Audio #3ID : 4Format : AACFormat/Info : Advanced Audio CodecFormat profile : LCCodec ID : A_AACDuration : 1h 5mnChannel(s) : 2 channelsChannel positions : Front: L RSampling rate : 48.0 KHzCompression mode : LossyTitle : AAC 2.0 @ 160 kbps - ENG, iTunesLanguage : EnglishDefault : NoForced : No
Text #1ID : 5Format : UTF-8Codec ID : S_TEXT/UTF8Codec ID/Info : UTF-8 Plain TextTitle : ForcedLanguage : RussianDefault : YesForced : No
Text #2ID : 6Format : UTF-8Codec ID : S_TEXT/UTF8Codec ID/Info : UTF-8 Plain TextLanguage : RussianDefault : NoForced : No
Text #3ID : 7Format : UTF-8Codec ID : S_TEXT/UTF8Codec ID/Info : UTF-8 Plain TextLanguage : EnglishDefault : NoForced : No
Menu00:00:00.000 : en:1. Main Title/"The Moment's Arrived!"00:00:58.000 : en:2. DONALD DUCK: STUCK ON CHRISTMAS: It's Christmas!00:05:36.000 : en:3. A Wish Upon A Star00:09:08.000 : en:4. Deja Vu Again And Again00:11:06.000 : en:5. Livening Things Up00:13:10.000 : en:6. The True Joy Of Christmas00:18:56.000 : en:7. A VERY GOOFY CHRISTMAS: A Letter To Santa00:23:22.000 : en:8. Is There a Santa Claus?00:29:09.000 : en:9. A Time To Share00:32:08.000 : en:10. "Ya Just Gotta Believe"00:36:57.000 : en:11. Yes Maxie, There Is A Santa Claus00:41:02.000 : en:12. MICKEY AND MINNIE'S GIFT OF THE MAGI: The Perfect Gift00:44:32.000 : en:13. Down At Crazy Pete's00:48:32.000 : en:14. Meanwhile, at Mortimer's...00:50:43.000 : en:15. The Charity Toy Drive00:56:28.000 : en:16. Gifts Of The Heart00:58:17.000 : en:17. Here We Come A-Caroling01:00:12.000 : en:18. End Credits/"Deck The Halls" as performed by SHeDAISY
Все раздачи мультфильма

_________________
Показать сообщения:    

Текущее время: Сегодня 08:21

Часовой пояс: GMT



Вы не можете начинать темы
Вы не можете отвечать на сообщения
Вы не можете редактировать свои сообщения
Вы не можете удалять свои сообщения
Вы не можете голосовать в опросах
Вы не можете прикреплять файлы к сообщениям
Вы не можете скачивать файлы