Важное объявление!
У Нас Все раздачи мультитрекерные, при нуле пиров в релизах, можете смело вставать на закачку!
 
Автор Сообщение

HUNTER

Стаж:
4 года 4 месяца
Сообщений:
56822

Репутация: 101

[+] [-]
Вне форума [Профиль] [ЛС]

-Меч дракона
Tian jiang xiong shi
Dragon Blade

Год выпуска: 2015
Страна: Китай (Sparkle Roll Media, Huayi Brothers Media, Shanghai Film Group, Visualizer Film Company, Fable House)
Жанр: Исторический, Боевик, Драма
Продолжительность: 02:07:11
Перевод: Одноголосый закадровый - А. Дольский
Режиссер: Дэниэл Ли / Daniel Lee-Роли исполняли (дублировали):
............
Huo An - Джеки Чан
Lucius - Джон Кьюсак
Tiberius - Эдриан Броуди
Yin Po - Чхве Ши Вон
... - Линь Пэн
... - Мика Ванг
The Queen - Шарни Винсон
Publius (The Roman Prince) - Jozef Waite
... - Бенни Уркидез
Queen - Элис Браун
Persian Queen - Lorie Pester
-Описание: Действие фильма разворачивается в Древнем Китае во времена правления династии Хань. Римский полководец Луция с легионом своих солдат оказывается на территории Китая. В это же время командир отряда охраны Западного региона Хо Ань в результате действий своих врагов становится рабом. И этим двум воинам было суждено встретиться в Западной пустыне, где развернётся эпическое сражение. Однако биться они будут не друг против друга, как можно было бы подумать, а против алчного императора Тиберия за суверенитет Китая.-Премьера (мир): 18 февраля 2015
Бюджет: $65 000 000
Кассовые сборы: $102 800 000

. .
За исходный БД 3Д спасибо S.V.O., а за русскую дорогу - , ilgizik01 и меценатам клуба!
-Качество: BDRip (by Ash61)
Контейнер: MKV
Формат 3D: Half OverUnder / Вертикальная анаморфная стереопара
Порядок ракурсов: левый ракурс первый-Видео: AVC / 23,976 fps / 1920х1080p / 12.3 Mbps
Аудио:
#1 - Русский / AC3 / 48 KHz / 5.1 ch / 640 Kbps (VO - А.Дольский)
#2 - Китайский / AC3 / 48 KHz / 5.1 ch / 640 Kbps (Original - BD 3D)
Субтитры: Отсутствуют

MediaInfo

General
Unique ID : 225458022953409206827693794239912702892 (0xA99DA2C138CB99F5B0DBCF3DB70173AC)
Complete name : E:\DragonBlade(2015)3D-halfOU(Ash61)VO-A.Dolskiy.mkv
Format : Matroska
Format version : Version 2
File size : 12.3 GiB
Duration : 2h 7mn
Overall bit rate : 13.8 Mbps
Movie name : Меч дракона / Dragon Blade / Tian jiang xiong shi (2015) в 3Д
Encoded date : UTC 2015-06-28 20:32:50
Writing application : mkvmerge v5.8.0 ('No Sleep / Pillow') built on Sep 2 2012 15:37:04
Writing library : libebml v1.2.3 + libmatroska v1.3.0
Video
ID : 1
Format : AVC
Format/Info : Advanced Video Codec
Format profile : High@L4.1
Format settings, CABAC : Yes
Format settings, ReFrames : 4 frames
Codec ID : V_MPEG4/ISO/AVC
Duration : 2h 7mn
Bit rate : 12.3 Mbps
Width : 1 920 pixels
Height : 1 080 pixels
Display aspect ratio : 16:9
Frame rate mode : Constant
Frame rate : 23.976 fps
Color space : YUV
Chroma subsampling : 4:2:0
Bit depth : 8 bits
Scan type : Progressive
Bits/(Pixel*Frame) : 0.247
Stream size : 10.9 GiB (89%)
Title : BDRip by Ash61
Writing library : x264 core 138 r2358 9e941d1
Encoding settings : cabac=1 / ref=4 / deblock=1:-3:-3 / analyse=0x3:0x113 / me=umh / subme=10 / psy=1 / psy_rd=1.00:0.00 / mixed_ref=1 / me_range=32 / chroma_me=1 / trellis=2 / 8x8dct=1 / cqm=0 / deadzone=21,11 / fast_pskip=1 / chroma_qp_offset=-2 / threads=12 / lookahead_threads=2 / sliced_threads=0 / nr=0 / decimate=1 / interlaced=0 / bluray_compat=0 / constrained_intra=0 / bframes=9 / b_pyramid=2 / b_adapt=2 / b_bias=0 / direct=3 / weightb=1 / open_gop=0 / weightp=2 / keyint=250 / keyint_min=23 / scenecut=40 / intra_refresh=0 / rc_lookahead=60 / rc=crf / mbtree=1 / crf=16.0 / qcomp=0.70 / qpmin=10 / qpmax=51 / qpstep=4 / vbv_maxrate=40000 / vbv_bufsize=30000 / crf_max=0.0 / nal_hrd=none / frame-packing=4 / ip_ratio=1.40 / aq=1:0.70
Language : Chinese
Default : Yes
Forced : No
Audio #1
ID : 2
Format : AC-3
Format/Info : Audio Coding 3
Mode extension : CM (complete main)
Format settings, Endianness : Big
Codec ID : A_AC3
Duration : 2h 7mn
Bit rate mode : Constant
Bit rate : 640 Kbps
Channel(s) : 6 channels
Channel positions : Front: L C R, Side: L R, LFE
Sampling rate : 48.0 KHz
Bit depth : 16 bits
Compression mode : Lossy
Stream size : 582 MiB (5%)
Title : Одноголосый закадровый - А.Дольский
Language : Russian
Default : Yes
Forced : No
Audio #2
ID : 3
Format : AC-3
Format/Info : Audio Coding 3
Mode extension : CM (complete main)
Format settings, Endianness : Big
Codec ID : A_AC3
Duration : 2h 7mn
Bit rate mode : Constant
Bit rate : 640 Kbps
Channel(s) : 6 channels
Channel positions : Front: L C R, Side: L R, LFE
Sampling rate : 48.0 KHz
Bit depth : 16 bits
Compression mode : Lossy
Stream size : 582 MiB (5%)
Title : Original
Language : Chinese
Default : No
Forced : No
Menu
00:00:00.000 : :1
00:09:07.922 : :2
00:20:20.719 : :3
00:33:51.194 : :4
00:41:35.201 : :5
00:52:37.528 : :6
01:04:45.715 : :7
01:14:50.985 : :8
01:26:40.778 : :9
01:34:43.219 : :10
01:44:40.106 : :11
01:52:04.926 : :12

Для оценки 3Д - Анимированные скрины
















_________________
Показать сообщения:    

Текущее время: Сегодня 21:23

Часовой пояс: GMT



Вы не можете начинать темы
Вы не можете отвечать на сообщения
Вы не можете редактировать свои сообщения
Вы не можете удалять свои сообщения
Вы не можете голосовать в опросах
Вы не можете прикреплять файлы к сообщениям
Вы не можете скачивать файлы