Важное объявление!
У Нас Все раздачи мультитрекерные, при нуле пиров в релизах, можете смело вставать на закачку!
 
Автор Сообщение

HUNTER

Стаж:
4 года 4 месяца
Сообщений:
56829

Репутация: 101

[+] [-]
Вне форума [Профиль] [ЛС]

Метеориты. Угроза из космоса. / Terra Mater: Meteorite - Boten aus dem All
Дата/Год выпуска: 2012
Страна: Австрия
Жанр: Документальный
Продолжительность: 00:52:28
Перевод: Студийный (одноголосый закадровый) "Видеофильм ТВ"
Русские субтитры: нет
Оригинальная аудиодорожка: нет
Режиссер: Иво Филач / Ivo Filatsch
Телеканал: Моя Планета
Описание: Падение метеоритов на нашу планету происходит постоянно. О таком явлении говорят как о метеоритной угрозе, угрозе для земной жизни. Наиболее знаменитым проявлением такой угрозы стал упавший на Землю около 65 миллионов лет назад метеорит, который привел к коренному изменению всей жизни на планете, положив конец эпохе динозавров. От взрыва метеорита над Челябинском пострадали здания и люди. Как можно предотвратить метеоритную угрозу? Над решением этого вопроса работают ученые всего мира.
Сэмпл: https://www.sendspace.com/file/s75bg2
качество: DVB
формат: MPG
Видео: MPEG2, 720:576, (4:3), 3037 Кбит/сек, 25,000 кадров/сек, (0.293 bit/pixel)
Аудио: MP2, 160 Кбит/сек, 48,0 КГц, 2 канала

MediaInfo

ОбщееПолное имя : Метеориты. Угроза из космоса .mpgФормат : MPEG-PSРазмер файла : 1,20 ГбайтПродолжительность : 52 м.Режим общего битрейта : ПеременныйОбщий поток : 3262 Кбит/сек
ВидеоИдентификатор : 224 (0xE0)Формат : MPEG VideoВерсия формата : Version 2Профиль формата : Main@MainПараметр BVOP формата : ДаПараметр матрицы формата : ВыборочнаяПараметр GOP формата : M=3, N=12Структура изображения : FrameПродолжительность : 52 м.Вид битрейта : ПеременныйБитрейт : 3037 Кбит/секМаксимальный битрейт : 15,0 Мбит/секШирина : 720 пикселейВысота : 576 пикселейСоотношение сторон : 4:3Частота кадров : 25,000 кадров/секСтандарт вещания : PALЦветовое пространство : YUVСубдискретизация насыщенности : 4:2:0Битовая глубина : 8 битТип развёртки : ЧересстрочнаяПорядок развёртки : Верхнее поле первоеМетод сжатия : С потерямиБит/(Пиксели*Кадры) : 0.293Временной код первого кадра : 00:00:00:00Оригинал временного кода : Group of pictures headerGOP, открыто/закрыто : ОткрытоРазмер потока : 1,11 Гбайт (93%)
АудиоИдентификатор : 192 (0xC0)Формат : MPEG AudioВерсия формата : Version 1Профиль формата : Layer 2Продолжительность : 52 м.Вид битрейта : ПостоянныйБитрейт : 160 Кбит/секКаналы : 2 каналаЧастота : 48,0 КГцМетод сжатия : С потерямиЗадержка видео : 4 мс.Размер потока : 60,1 Мбайт (5%)

Скриншоты

Запись потока *.ts произведена тюнером цифрового телевидения. В связи с тем, что не все плееры воспроизводят поток *.ts (MPEG-TS) , в данном видеофайле мной был сделан ремукс потока *.ts (MPEG-TS) в *.mpg (MPEG-PS) программой VideoReDo

_________________
Показать сообщения:    

Текущее время: Сегодня 16:08

Часовой пояс: GMT



Вы не можете начинать темы
Вы не можете отвечать на сообщения
Вы не можете редактировать свои сообщения
Вы не можете удалять свои сообщения
Вы не можете голосовать в опросах
Вы не можете прикреплять файлы к сообщениям
Вы не можете скачивать файлы