Важное объявление!
У Нас Все раздачи мультитрекерные, при нуле пиров в релизах, можете смело вставать на закачку!
 
Автор Сообщение

HUNTER

Стаж:
4 года 4 месяца
Сообщений:
56798

Репутация: 101

[+] [-]
Вне форума [Профиль] [ЛС]

Метеор. Огненный шар из космоса / Meteor Strike: Fireball from Space
Дата/Год выпуска: 2013
Страна: Великобритания
Жанр: Документальное расследование, катастрофы, хроника,
Продолжительность: 00:47:59
Перевод: Профессиональный (двухголосый закадровый)
Русские субтитры: нет
Режиссер: Эндрю Бэррон / Andrew Barron
Телеканал: Моя Планета
Описание: Используя уникальные съемки и свидетельства очевидцев, фильм рассказывает о падении метеорита в Челябинске и его катастрофических последствиях. В фильме обсуждается вся серьезность возможного падения метеорита в будущем, а также какие меры предпринимают власти для защиты населения от подобных неожиданных происшествий.
Доп. информация: Подобные раздачи [url=viewtopic.php?t=4421050]http://rutracker.org/forum/viewtopic.php?t=4421050[/url]
Сэмпл: http://multi-up.com/1115042
качество: IPTVRip
формат: AVI
Видео: 720x384 (1.88:1), 25 fps, XviD build 67 ~1985 kbps avg, 0.29 bit/pixel
Аудио: 48 kHz, AC3 Dolby Digital, 2/0 (L,R) Surround Encoded ch, ~192 kbps

MediaInfo

GeneralComplete name : E:\Pshichko66\Na zapis'\Документальные фильмы\Meteor. Ognennyj shar iz kosmosa.aviFormat : AVIFormat/Info : Audio Video InterleaveFile size : 751 MiBDuration : 47mn 59sOverall bit rate : 2 187 KbpsWriting application : VirtualDubMod 1.5.10.2 (build 2540/release)Writing library : VirtualDubMod build 2540/release
VideoID : 0Format : MPEG-4 VisualFormat profile : Advanced Simple@L5Format settings, BVOP : 2Format settings, QPel : NoFormat settings, GMC : No warppointsFormat settings, Matrix : CustomCodec ID : XVIDCodec ID/Hint : XviDDuration : 47mn 59sBit rate : 1 986 KbpsWidth : 720 pixelsHeight : 384 pixelsDisplay aspect ratio : 1.85:1Frame rate : 25.000 fpsColor space : YUVChroma subsampling : 4:2:0Bit depth : 8 bitsScan type : ProgressiveCompression mode : LossyBits/(Pixel*Frame) : 0.287Stream size : 681 MiB (91%)Writing library : XviD 67
AudioID : 1Format : AC-3Format/Info : Audio Coding 3Format profile : Dolby DigitalMode extension : CM (complete main)Format settings, Endianness : BigCodec ID : 2000Duration : 47mn 59sBit rate mode : ConstantBit rate : 192 KbpsChannel(s) : 2 channelsChannel positions : Front: L RSampling rate : 48.0 KHzCompression mode : LossyStream size : 65.9 MiB (9%)Alignment : Split accross interleavesInterleave, duration : 40 ms (1.00 video frame)Interleave, preload duratio : 500 ms

Скриншоты


_________________
Показать сообщения:    

Текущее время: Сегодня 20:13

Часовой пояс: GMT



Вы не можете начинать темы
Вы не можете отвечать на сообщения
Вы не можете редактировать свои сообщения
Вы не можете удалять свои сообщения
Вы не можете голосовать в опросах
Вы не можете прикреплять файлы к сообщениям
Вы не можете скачивать файлы