Важное объявление!
У Нас Все раздачи мультитрекерные, при нуле пиров в релизах, можете смело вставать на закачку!
 
Автор Сообщение

HUNTER

Стаж:
4 года 4 месяца
Сообщений:
56790

Репутация: 101

[+] [-]
Вне форума [Профиль] [ЛС]

Месье Верду / Monsieur Verdoux
Страна: США
Жанр: драма, комедия
Год выпуска: 1947
Продолжительность: 02:04:25
Перевод: Профессиональный (многоголосый закадровый) | ВГТРК
Перевод: Авторский (одноголосый закадровый) | Юрий Товбин
Cубтитры: русские, английские
Оригинальная аудиодорожка: английский-Режиссер: Чарльз Чаплин / Charles Chaplin
В ролях: Чарльз Чаплин, Мэди Коррелл, Эллисон Родден, Роберт Льюис (II), Одри Бетц, Марта Рэй, Ада Мэй, Исобел Элсом, Марджори Беннетт, Хелен Хэйг, Маргарет Хоффман, Ирвинг Бэйкон, Эдвин Миллс, Вирджиния Бриссак, Альмира Сешнс, Юла Морган, Бернард Неделл, Чарльз Эванс, Уильям Фроули
Описание: Анри Верду, вежливый, располагающий к себе мелкий буржуа, из-за экономического упадка лишен возможности зарабатывать на жизнь честным путем. Он изобретает доходную профессию - жениться на богатых вдовах и, завладев их состоянием, со временем избавляться от них при помощи яда.
IMDb || КиноПоиск-Тип релиза: BDRip 720p [CtrlHD]
Контейнер: MKV
Видео: H.264/AVC, 960x720 at 23.976 fps, ~10000 kbps
Аудио#1: Russian: 48 kHz, AC3, 2.0 ch, 192 kbps |Многоголосый закадровый, ВГТРК|
Аудио#2: Russian: 48 kHz, AC3, 2.0 ch, 192 kbps |Авторский закадровый, Ю.Товбин|
Аудио#3: English: 48 kHz, FLAC, 1.0 ch, 207 kbps
Формат субтитров: softsub (SRT)
Сэмпл

MediaInfo

General
Unique ID : 186348239263438168044488142080275047646 (0x8C315D8B631CF250ABB9796B2AE6E4DE)
Complete name : Monsieur Verdoux.1947.CC.720p-CtrlHD. rutracker.mkv
Format : Matroska
Format version : Version 2
File size : 9.21 GiB
Duration : 2h 4mn
Overall bit rate mode : Variable
Overall bit rate : 10.6 Mbps
Movie name : Release for RuTracker
Encoded date : UTC 2014-01-24 04:51:19
Writing application : mkvmerge v5.0.1 ('Es ist Sommer') built on Nov 6 2011 16:23:40
Writing library : libebml v1.2.2 + libmatroska v1.3.0
Video
ID : 1
Format : AVC
Format/Info : Advanced Video Codec
Format profile : High@L4.1
Format settings, CABAC : Yes
Format settings, ReFrames : 12 frames
Codec ID : V_MPEG4/ISO/AVC
Duration : 2h 4mn
Nominal bit rate : 10 000 Kbps
Width : 960 pixels
Height : 720 pixels
Display aspect ratio : 4:3
Frame rate : 23.976 fps
Color space : YUV
Chroma subsampling : 4:2:0
Bit depth : 8 bits
Scan type : Progressive
Bits/(Pixel*Frame) : 0.603
Title : CtrlHD
Writing library : x264 core 130 r2273 b3065e6
Encoding settings : cabac=1 / ref=12 / deblock=1:-3:-3 / analyse=0x3:0x133 / me=umh / subme=10 / psy=1 / psy_rd=1.05:0.00 / mixed_ref=1 / me_range=24 / chroma_me=1 / trellis=2 / 8x8dct=1 / cqm=0 / deadzone=21,11 / fast_pskip=1 / chroma_qp_offset=-2 / threads=12 / lookahead_threads=2 / sliced_threads=0 / nr=0 / decimate=1 / interlaced=0 / bluray_compat=0 / constrained_intra=0 / bframes=8 / b_pyramid=2 / b_adapt=2 / b_bias=0 / direct=3 / weightb=1 / open_gop=0 / weightp=2 / keyint=250 / keyint_min=23 / scenecut=40 / intra_refresh=0 / rc=2pass / mbtree=0 / bitrate=10000 / ratetol=1.0 / qcomp=0.75 / qpmin=0 / qpmax=69 / qpstep=4 / cplxblur=20.0 / qblur=0.5 / ip_ratio=1.20 / pb_ratio=1.10 / aq=1:0.65
Language : English
Default : Yes
Forced : No
Audio #1
ID : 2
Format : AC-3
Format/Info : Audio Coding 3
Mode extension : CM (complete main)
Codec ID : A_AC3
Duration : 2h 4mn
Bit rate mode : Constant
Bit rate : 192 Kbps
Channel(s) : 2 channels
Channel positions : Front: L R
Sampling rate : 48.0 KHz
Bit depth : 16 bits
Compression mode : Lossy
Stream size : 171 MiB (2%)
Title : mvo
Language : Russian
Default : Yes
Forced : No
Audio #2
ID : 3
Format : AC-3
Format/Info : Audio Coding 3
Mode extension : CM (complete main)
Codec ID : A_AC3
Duration : 2h 4mn
Bit rate mode : Constant
Bit rate : 192 Kbps
Channel(s) : 2 channels
Channel positions : Front: L R
Sampling rate : 48.0 KHz
Bit depth : 16 bits
Compression mode : Lossy
Stream size : 171 MiB (2%)
Title : avo
Language : Russian
Default : No
Forced : No
Audio #3
ID : 4
Format : FLAC
Format/Info : Free Lossless Audio Codec
Codec ID : A_FLAC
Duration : 2h 4mn
Bit rate mode : Variable
Channel(s) : 1 channel
Sampling rate : 48.0 KHz
Bit depth : 16 bits
Writing library : libFLAC 1.2.1 (UTC 2007-09-17)
Language : English
Default : No
Forced : No
Text #1
ID : 5
Format : UTF-8
Codec ID : S_TEXT/UTF8
Codec ID/Info : UTF-8 Plain Text
Language : Russian
Default : No
Forced : No
Text #2
ID : 6
Format : UTF-8
Codec ID : S_TEXT/UTF8
Codec ID/Info : UTF-8 Plain Text
Language : English
Default : No
Forced : No
Text #3
ID : 7
Format : UTF-8
Codec ID : S_TEXT/UTF8
Codec ID/Info : UTF-8 Plain Text
Title : SDH
Language : English
Default : No
Forced : No
Menu
00:00:00.000 : en:01. "Good Evening"
00:02:43.663 : en:02. The Couvais Family
00:06:42.193 : en:03. Monsieur Varnay
00:13:03.366 : en:04. "He's A Bluebeard"
00:20:26.475 : en:05. A Visit To Paris
00:24:26.924 : en:06. Lydia
00:32:24.192 : en:07. "Daddy!"
00:38:43.071 : en:08. The Bonheurs
00:47:01.944 : en:09. Annabella And Chloroform
00:51:08.107 : en:10. Wooing Madame Grosnay
00:54:09.746 : en:11. "C?HC"
00:56:58.915 : en:12. The Experiment
01:01:42.407 : en:13. "I Would Have Killed For Him"
01:08:47.290 : en:14. "The Game's Up"
01:15:16.971 : en:15. A Bit Of Business
01:17:48.539 : en:16. Annabella And Poison
01:25:42.971 : en:17. Annabella And The Lake
01:31:21.768 : en:18. "I Have No More Resistance"
01:36:13.017 : en:19. A Quiet Wedding
01:44:07.491 : en:20. World In Crisis
01:46:15.202 : en:21. "Hello, Mr. Philanthropist"
01:48:26.417 : en:22. Destiny
01:56:48.501 : en:23. "Numbers Sanctify"

Скриншоты

Kinowelt vs Criterion _______________________CtrlHD vs Source

_________________
Показать сообщения:    

Текущее время: Сегодня 09:50

Часовой пояс: GMT



Вы не можете начинать темы
Вы не можете отвечать на сообщения
Вы не можете редактировать свои сообщения
Вы не можете удалять свои сообщения
Вы не можете голосовать в опросах
Вы не можете прикреплять файлы к сообщениям
Вы не можете скачивать файлы