Важное объявление!
У Нас Все раздачи мультитрекерные, при нуле пиров в релизах, можете смело вставать на закачку!
 
Автор Сообщение

димитри37

Стаж:
3 года 9 месяцев
Сообщений:
1237

Репутация: 127

[+] [-]
Вне форума [Профиль] [ЛС]

Месть волшебной рыбки
«When the sea disappears»
Страна: Испания, Индия / Baleuko S.L., Image Venture...
Жанр: мультфильм, приключения
Год выпуска: 2012
Продолжительность: 01:10:08
Перевод: Профессиональный (многоголосый, закадровый)
Оригинальная аудиодорожка: нет
Cубтитры: нет
Режиссер: Иван Онека / Ivan Oneka, Горка Васкез / Gorka Vázquez
Описание: Пухленький Опил любит играть в монстров, рассматривать комиксы, жевать конфеты и чипсы. А вот рыбу он терпеть не может. Но мама хочет, чтобы он правильно питался, и готовит ему на ужин «рыбу желаний». «Если ты ее съешь, твои желания сбудутся», — убеждает она сына, чтобы тот проглотил хоть кусочек. Опил не воспринимает маму всерьез и пережевывает ненавистное блюдо, бубня, что он хочет, чтобы на Землю прилетели инопланетяне и уничтожили всех водоплавающих. К изумлению мальчика и всех окружающих, его желание действительно сбывается: нашу планету атакует армия пришельцев с Сатурна. Оккупанты уничтожают водных обитателей и иссушают океаны. Как же остановить коварных мародеров?-
-Исходник: DVD5 R5
Качество видео: DVDRip
Формат видео: AVI
Видео: XviD; 720x400 (16:9); 1348 Kbps; 25,000 fps; 0,187 bpp
Аудио: MP3; 128 Kbps; CBR; 2 ch; 16 bit, 48 kHz

MediaInfo

Общее
Полное имя : Mest.volshebnoy.rybki.2012.P.DVDRip.745MB_[Youtracker]_by_avproh.avi
Формат : AVI
Формат/Информация : Audio Video Interleave
Размер файла : 745 Мбайт
Продолжительность : 1 ч. 10 м.
Общий поток : 1486 Кбит/сек
Программа кодирования : VirtualDubModRus 1.5.10.2 (build 2542/release)
Библиотека кодирования : VirtualDubMod build 2542/release
Видео
Идентификатор : 0
Формат : MPEG-4 Visual
Профиль формата : Advanced Simple@L5
Параметр BVOP формата : 1
Параметр QPel формата : Нет
Параметр GMC формата : Без точки перехода
Параметр матрицы формата : Выборочная
Идентификатор кодека : XVID
Идентификатор кодека/Подсказка : XviD
Продолжительность : 1 ч. 10 м.
Битрейт : 1348 Кбит/сек
Ширина : 720 пикселей
Высота : 400 пикселей
Соотношение сторон : 16:9
Частота кадров : 25,000 кадров/сек
Цветовое пространство : YUV
Субдискретизация насыщенности : 4:2:0
Битовая глубина : 8 бит
Тип развёртки : Прогрессивная
Метод сжатия : С потерями
Бит/(Пиксели*Кадры) : 0.187
Размер потока : 676 Мбайт (91%)
Библиотека кодирования : XviD 65
Аудио
Идентификатор : 1
Формат : MPEG Audio
Версия формата : Version 1
Профиль формата : Layer 3
Режим : Joint stereo
Расширение режима : MS Stereo
Идентификатор кодека : 55
Идентификатор кодека/Подсказка : MP3
Продолжительность : 1 ч. 10 м.
Вид битрейта : Постоянный
Битрейт : 128 Кбит/сек
Каналы : 2 канала
Частота : 48,0 КГц
Метод сжатия : С потерями
Размер потока : 64,2 Мбайт (9%)
Выравнивание : Соединение по промежуткам
Продолжительность промежутка : 40 мс. (1,00 видеокадр)
Время предзагрузки промежутка : 504 мс.

Скриншоты

Сравнение

http://rutor.org/torrent/275408/
http://screenshotcomparison.com/comparison/32760 - перекроп по вертикали и квадраты
-Источник:
Показать сообщения:    

Текущее время: Сегодня 16:07

Часовой пояс: GMT



Вы не можете начинать темы
Вы не можете отвечать на сообщения
Вы не можете редактировать свои сообщения
Вы не можете удалять свои сообщения
Вы не можете голосовать в опросах
Вы не можете прикреплять файлы к сообщениям
Вы не можете скачивать файлы