Важное объявление!
У Нас Все раздачи мультитрекерные, при нуле пиров в релизах, можете смело вставать на закачку!
 
Автор Сообщение

HUNTER

Стаж:
4 года 4 месяца
Сообщений:
56733

Репутация: 101

[+] [-]
Вне форума [Профиль] [ЛС]

Месть / Revenge
Страна: США, Мексика
Студия: Columbia Pictures
Жанр: боевик, триллер, драма
Год выпуска: 1990
Продолжительность: 02:04:01
Источник: собственный рип
Исходник
Перевод:
  • Профессиональный (многоголосый закадровый) R5
  • Профессиональный (многоголосый закадровый) 1-й канал
  • Профессиональный (дублированный) киностудия имени М. Горького
  • Авторский (одноголосый закадровый) Юрий Живов
  • Авторский (одноголосый закадровый) Андрей Гаврилов
  • Авторский (одноголосый закадровый) Михаил Иванов
    Cубтитры: русские
    Оригинальная аудиодорожка: английский
    Режиссер: Тони Скотт / Tony Scott
    В ролях: Кевин Костнер (Michael J. "Jay" Cochran), Мэделин Стоу (Miryea Mendez), Энтони Куинн (Tiburon "Tibby" Mendez), Хоакин Мартинес (Mauro), Мигель Феррер (Amador), Томас Милиан (Cesar), Джеймс Гэммон (Texan), Джон Легуизамо (Ignacio), Джесси Корти (Madero), Сэлли Кёркленд (Rock Star)
    Описание: Майкл Кокрэн, военный летчик ВМС США, отдав много лет службе, с почетом выходит в отставку. Решив отдохнуть перед "гражданкой", Кокрэн едет к своему старому другу Тибби Мендесу. Тому - лет 70, он очень влиятельный человек, богач и... настоящий босс местной мафии. А еще у Тибурона Мендеса очень красивая и молодая жена Мирея...
    Страсть, обуявшая Майкла и Мирею недолго остается тайной, и когда их секрет раскрывается, страсть, ярость, ревность и честь сталкиваются, ставя на грань жизни и смерти не только молодых любовников, но и многих вокруг.
    Тони Скотт погружает зрителя все глубже и глубже в атмосферу Мексики и ее жестоких нравов. В историю сильного человека, цель которого найти отнятую любовь и отомстить любой ценой.

    Тип релиза: BDRip
    Контейнер: MKV
    Видео: x264 (High@L4.1) / 1280*544 / 2,35:1 / 23,976 fps / 4560 Kbps
    Аудио 1: Russian / AC3 / 48,0 kHz / 192 Kbps / 2.0 (R5)
    Аудио 2: Russian / AC3 / 48,0 kHz / 192 Kbps / 2.0 (1-й канал)
    Аудио 3: Russian / AC3 / 48,0 kHz / 192 Kbps / 2.0 (Дубляж)
    Аудио 4: Russian / AC3 / 48,0 kHz / 192 Kbps / 2.0 (Юрий Живов)
    Аудио 5: Russian / DTS / 48,0 kHz / 768 Kbps / 2.0 (Андрей Гаврилов)
    Аудио 6: Russian / DTS / 48,0 kHz / 768 Kbps / 2.0 (Михаил Иванов)
    Аудио 7: English / DTS, 48,0 kHz / 768 Kbps / 2.0 (Оригинал)
    Формат субтитров: softsub (SRT)

MediaInfo

Видео
Идентификатор : 1
Формат : AVC
Формат/Информация : Advanced Video Codec
Профиль формата : High@L4.1
Параметр CABAC формата : Да
Параметр ReFrames формата : 9 кадров
Идентификатор кодека : V_MPEG4/ISO/AVC
Продолжительность : 2 ч. 4 м.
Битрейт : 4560 Кбит/сек
Ширина : 1280 пикселей
Высота : 544 пикселя
Соотношение сторон : 2,35:1
Режим частоты кадров : Постоянный
Частота кадров : 23,976 кадра/сек
Цветовое пространство : YUV
Субдискретизация насыщенности : 4:2:0
Битовая глубина : 8 бит
Тип развёртки : Прогрессивная
Бит/(Пиксели*Кадры) : 0.273
Размер потока : 3,82 Гбайт (58%)
Заголовок : Revenge.1990.BDRip.720p
Библиотека кодирования : x264 core 148 r2597 e86f3a1
Настройки программы : cabac=1 / ref=9 / deblock=1:-2:-2 / analyse=0x3:0x133 / me=umh / subme=10 / psy=1 / psy_rd=1.00:0.00 / mixed_ref=1 / me_range=32 / chroma_me=1 / trellis=2 / 8x8dct=1 / cqm=0 / deadzone=21,11 / fast_pskip=0 / chroma_qp_offset=-2 / threads=6 / lookahead_threads=1 / sliced_threads=0 / nr=0 / decimate=0 / interlaced=0 / bluray_compat=0 / constrained_intra=0 / bframes=7 / b_pyramid=2 / b_adapt=2 / b_bias=0 / direct=3 / weightb=1 / open_gop=0 / weightp=2 / keyint=240 / keyint_min=23 / scenecut=40 / intra_refresh=0 / rc=2pass / mbtree=0 / bitrate=4560 / ratetol=1.0 / qcomp=0.60 / qpmin=0 / qpmax=69 / qpstep=4 / cplxblur=20.0 / qblur=0.5 / ip_ratio=1.40 / pb_ratio=1.30 / aq=1:1.00
Default : Да
Forced : Нет
Аудио #1
Идентификатор : 2
Формат : AC-3
Формат/Информация : Audio Coding 3
Расширение режима : CM (complete main)
Параметр Endianness формата : Big
Идентификатор кодека : A_AC3
Продолжительность : 2 ч. 4 м.
Вид битрейта : Постоянный
Битрейт : 192 Кбит/сек
Каналы : 2 канала
Расположение каналов : Front: L R
Частота : 48,0 КГц
Метод сжатия : С потерями
Размер потока : 170 Мбайт (3%)
Заголовок : AC3 2.0 @ 192 kbps MVO R5
Язык : Russian
Default : Да
Forced : Нет
Аудио #2
Идентификатор : 3
Формат : AC-3
Формат/Информация : Audio Coding 3
Расширение режима : CM (complete main)
Параметр Endianness формата : Big
Идентификатор кодека : A_AC3
Продолжительность : 2 ч. 4 м.
Вид битрейта : Постоянный
Битрейт : 192 Кбит/сек
Каналы : 2 канала
Расположение каналов : Front: L R
Частота : 48,0 КГц
Метод сжатия : С потерями
Размер потока : 170 Мбайт (3%)
Заголовок : AC3 2.0 @ 192 kbps MVO "1 канал"
Язык : Russian
Default : Нет
Forced : Нет
Аудио #3
Идентификатор : 4
Формат : AC-3
Формат/Информация : Audio Coding 3
Расширение режима : CM (complete main)
Параметр Endianness формата : Big
Идентификатор кодека : A_AC3
Продолжительность : 2 ч. 4 м.
Вид битрейта : Постоянный
Битрейт : 192 Кбит/сек
Каналы : 2 канала
Расположение каналов : Front: L R
Частота : 48,0 КГц
Метод сжатия : С потерями
Размер потока : 170 Мбайт (3%)
Заголовок : AC3 2.0 @ 192 kbps Дубляж
Язык : Russian
Default : Нет
Forced : Нет
Аудио #4
Идентификатор : 5
Формат : AC-3
Формат/Информация : Audio Coding 3
Расширение режима : CM (complete main)
Параметр Endianness формата : Big
Идентификатор кодека : A_AC3
Продолжительность : 2 ч. 4 м.
Вид битрейта : Постоянный
Битрейт : 192 Кбит/сек
Каналы : 2 канала
Расположение каналов : Front: L R
Частота : 48,0 КГц
Метод сжатия : С потерями
Размер потока : 170 Мбайт (3%)
Заголовок : AC3 2.0 @ 192 kbps AVO Юрий Живов
Язык : Russian
Default : Нет
Forced : Нет
Аудио #5
Идентификатор : 6
Формат : DTS
Формат/Информация : Digital Theater Systems
Режим : 16
Параметр Endianness формата : Big
Идентификатор кодека : A_DTS
Продолжительность : 2 ч. 4 м.
Вид битрейта : Постоянный
Битрейт : 768 Кбит/сек
Каналы : 2 канала
Расположение каналов : Front: L R
Частота : 48,0 КГц
Битовая глубина : 24 бит
Метод сжатия : С потерями
Размер потока : 681 Мбайт (10%)
Заголовок : DTS 2.0 @ 768 kbps AVO Андрей Гаврилов
Язык : Russian
Default : Нет
Forced : Нет
Аудио #6
Идентификатор : 7
Формат : DTS
Формат/Информация : Digital Theater Systems
Режим : 16
Параметр Endianness формата : Big
Идентификатор кодека : A_DTS
Продолжительность : 2 ч. 4 м.
Вид битрейта : Постоянный
Битрейт : 768 Кбит/сек
Каналы : 2 канала
Расположение каналов : Front: L R
Частота : 48,0 КГц
Битовая глубина : 24 бит
Метод сжатия : С потерями
Размер потока : 681 Мбайт (10%)
Заголовок : DTS 2.0 @ 768 kbps AVO Михаил Иванов
Язык : Russian
Default : Нет
Forced : Нет
Аудио #7
Идентификатор : 8
Формат : DTS
Формат/Информация : Digital Theater Systems
Режим : 16
Параметр Endianness формата : Big
Идентификатор кодека : A_DTS
Продолжительность : 2 ч. 4 м.
Вид битрейта : Постоянный
Битрейт : 768 Кбит/сек
Каналы : 2 канала
Расположение каналов : Front: L R
Частота : 48,0 КГц
Битовая глубина : 24 бит
Метод сжатия : С потерями
Размер потока : 681 Мбайт (10%)
Заголовок : DTS 2.0 @ 768 kbps Оригинал
Язык : English
Default : Нет
Forced : Нет
Текст
Идентификатор : 9
Формат : UTF-8
Идентификатор кодека : S_TEXT/UTF8
Идентификатор кодека/Информация : UTF-8 Plain Text
Язык : Russian
Default : Нет
Forced : Нет
Меню
00:00:00.000 : :Chapter 1
00:12:06.807 : :Chapter 2
00:22:19.586 : :Chapter 3
00:33:30.383 : :Chapter 4
00:45:52.958 : :Chapter 5
00:58:17.661 : :Chapter 6
01:09:25.368 : :Chapter 7
01:20:49.720 : :Chapter 8
01:32:25.582 : :Chapter 9
01:44:22.381 : :Chapter 10
01:55:14.198 : :Chapter 11
02:00:26.386 : :Chapter 12

x264 log

raw [info]: 1280x544p 1:1 @ 24000/1001 fps (cfr)
x264 [info]: using SAR=1/1
x264 [info]: using cpu capabilities: MMX2 SSE2Fast SSSE3 SSE4.2 AVX
x264 [info]: profile High, level 4.1
x264 [info]: frame I:1142 Avg QP:15.85 size: 98640
x264 [info]: frame P:37087 Avg QP:18.21 size: 43169
x264 [info]: frame B:140187 Avg QP:20.02 size: 18031
x264 [info]: consecutive B-frames: 1.2% 1.7% 5.6% 21.7% 20.1% 40.2% 6.8% 2.6%
x264 [info]: mb I I16..4: 2.4% 89.6% 8.0%
x264 [info]: mb P I16..4: 0.7% 18.5% 1.1% P16..4: 35.6% 27.8% 14.8% 0.3% 0.1% skip: 1.3%
x264 [info]: mb B I16..4: 0.0% 0.8% 0.1% B16..8: 44.9% 16.3% 4.5% direct:13.6% skip:19.9% L0:46.6% L1:44.5% BI: 8.9%
x264 [info]: 8x8 transform intra:90.9% inter:63.3%
x264 [info]: direct mvs spatial:97.9% temporal:2.1%
x264 [info]: coded y,uvDC,uvAC intra: 95.6% 78.5% 42.7% inter: 51.5% 34.2% 5.9%
x264 [info]: i16 v,h,dc,p: 30% 8% 8% 55%
x264 [info]: i8 v,h,dc,ddl,ddr,vr,hd,vl,hu: 8% 6% 8% 10% 15% 14% 13% 12% 13%
x264 [info]: i4 v,h,dc,ddl,ddr,vr,hd,vl,hu: 8% 5% 2% 10% 17% 17% 14% 13% 13%
x264 [info]: i8c dc,h,v,p: 41% 24% 21% 14%
x264 [info]: Weighted P-Frames: Y:16.1% UV:7.2%
x264 [info]: ref P L0: 36.8% 10.2% 19.6% 8.8% 7.5% 5.4% 5.0% 3.0% 3.0% 0.6% 0.0%
x264 [info]: ref B L0: 68.1% 13.6% 7.0% 4.0% 2.9% 2.5% 1.4% 0.6%
x264 [info]: ref B L1: 92.5% 7.5%
x264 [info]: kb/s:4559.69
encoded 178416 frames, 5.44 fps, 4559.68 kb/s
Final statistics
Video Bitrate Desired: 4560 kbit/s
Video Bitrate Obtained (approximate): 4559 kbit/s

Скриншоты

Source ~ Encode










_________________
Показать сообщения:    

Текущее время: Сегодня 22:13

Часовой пояс: GMT



Вы не можете начинать темы
Вы не можете отвечать на сообщения
Вы не можете редактировать свои сообщения
Вы не можете удалять свои сообщения
Вы не можете голосовать в опросах
Вы не можете прикреплять файлы к сообщениям
Вы не можете скачивать файлы