Важное объявление!
У Нас Все раздачи мультитрекерные, при нуле пиров в релизах, можете смело вставать на закачку!
 
Автор Сообщение

Shalun

Стаж:
4 года 4 месяца
Сообщений:
802

Репутация: 123

[+] [-]
Вне форума [Профиль] [ЛС]

«'Why rule the living when you can control the dead?'»-
Год выпуска: 2010
Страна: США
Студия: Midnight Syndicate Films, Precinct 13 Entertainment
Перевод: Профессиональный (многоголосый закадровый) лицензия
Субтитры: нет
Оригинальная аудиодорожка: нет
Жанр: ужасы
Продолжительность: 01:27:04
Режиссер: Эдвард Дуглас / Edward Douglas
В ролях: Эндрю Дивофф, Джейсон Картер, Том Савини, Шон Серино, Том Нэйджел, С.Б. Спенсер, Кристофер Робишо, Брайан Ван Кэмп, Донна Уильямс, Джим О’Риэр...
Описание: В руки потерявшей брата девушки попадает загадочный амулет в форме скарабея. Раньше он принадлежал вампирам и обладает огромной мистической силой. Вместо того, чтобы вернуть амулет обратно в лес, героиня постарается с помощью его связаться с духом брата. Инструкция к артефакту не прилагалась, и вместо сотового телефона с потусторонним миром получится эффект оживления всех мертвецов в округе.-
-Исходник: The.Dead.Matter.2010.1080p.MKV.AC3.DTS.NL.Subs+DVD5 R5
Качество: HDRip
Формат: AVI
Видео: 720x400 (16:9), 23.976 fps, XviD MPEG-4 ~1938 kbps avg, 0.281 bit/pixel
Аудио: Russian, AC3, 5/1 ch, 448 kbps, Delay 0 mSec

MediaInfo

Общее
Полное имя : Mertvaya.plot.2010.P.HDRip_[Youtracker]_by_avproh.avi
Формат : AVI
Формат/Информация : Audio Video Interleave
Размер файла : 1,46 Гбайт
Продолжительность : 1 ч. 27 м.
Общий поток : 2396 Кбит/сек
Программа кодирования : VirtualDubMod 1.5.10.3 (build 2550/release)
Библиотека кодирования : VirtualDubMod build 2550/release
Видео
Идентификатор : 0
Формат : MPEG-4 Visual
Профиль формата : Advanced Simple@L5
Параметр BVOP формата : 1
Параметр QPel формата : Нет
Параметр GMC формата : Без точки перехода
Параметр матрицы формата : Выборочная
Идентификатор кодека : XVID
Идентификатор кодека/Подсказка : XviD
Продолжительность : 1 ч. 27 м.
Битрейт : 1938 Кбит/сек
Ширина : 720 пикселей
Высота : 400 пикселей
Соотношение сторон : 16:9
Частота кадров : 23,976 кадра/сек
Цветовое пространство : YUV
Субдискретизация насыщенности : 4:2:0
Битовая глубина : 8 бит
Тип развёртки : Прогрессивная
Метод сжатия : С потерями
Бит/(Пиксели*Кадры) : 0.281
Размер потока : 1,18 Гбайт (81%)
Библиотека кодирования : XviD 65
Аудио
Идентификатор : 1
Формат : AC-3
Формат/Информация : Audio Coding 3
Расширение режима : CM (complete main)
Параметр Endianness формата : Big
Идентификатор кодека : 2000
Продолжительность : 1 ч. 27 м.
Вид битрейта : Постоянный
Битрейт : 448 Кбит/сек
Каналы : 6 каналов
Расположение каналов : Front: L C R, Side: L R, LFE
Частота : 48,0 КГц
Битовая глубина : 16 бит
Метод сжатия : С потерями
Размер потока : 279 Мбайт (19%)
Выравнивание : Разделение по промежуткам
Продолжительность промежутка : 42 мс. (1,00 видеокадр)
Время предзагрузки промежутка : 500 мс.

Скриншоты

-

_________________
Показать сообщения:    

Текущее время: Сегодня 04:26

Часовой пояс: GMT



Вы не можете начинать темы
Вы не можете отвечать на сообщения
Вы не можете редактировать свои сообщения
Вы не можете удалять свои сообщения
Вы не можете голосовать в опросах
Вы не можете прикреплять файлы к сообщениям
Вы не можете скачивать файлы