Важное объявление!
У Нас Все раздачи мультитрекерные, при нуле пиров в релизах, можете смело вставать на закачку!
 
Автор Сообщение

HUNTER

Стаж:
4 года 4 месяца
Сообщений:
56733

Репутация: 101

[+] [-]
Вне форума [Профиль] [ЛС]

Медный каньон / Copper Canyon-
Год выпуска: 1950
Страна: США
Жанр: вестерн
Продолжительность: 01:23:42
Перевод: Профессиональный (многоголосый закадровый) ТРК «Петербург – 5-й канал»
Оригинальная аудиодорожка: Английская
Cубтитры: Английские-Режиссер: Джон Фэрроу / John Farrow
В ролях: Рэй Милланд, Хеди Ламарр, МакДональд Кэри, Мона Фриман, Гарри Кэри мл.-Описание:
Группу рабочих медного рудника терроризируют местные бандиты под предводительством помощника шерифа Лейна Тревиса. Рабочие надеятся на помощь актера Джонни Картера, в прошлом известного полковника Десмонда. Но они ошибаются: шоу Джонни прибывает в городок и Джонни начинает ухаживать за прекрасной мошенницей Лизой Розель, которая, уверены рабочие, является центром их неприятностей. (Светла).-За дорожку спасибо palmeiras.
| IMDb | Сэмпл-Качество: WEB-DL 720p (SbR)
Контейнер: MKV
Видео: AVC, 940x720 (1.31:1), 23.976 fps, 3995 kbps
Аудио 1: Русский AC3 2.0, 48 kHz, 192 kbps
Аудио 2: Английский AC3 2.0, 48 kHz, 192 kbps
Аудио 3: Английский AAC 2.0, 48 kHz, 115 kbps

Скриншоты

MI

General
Unique ID : 179744579238145541717328891303347035354 (0x87398BF7C82F731D8C64967FC5EB1CDA)
Complete name : Copper.Canyon.1950.720p.WEB-DL.H.264-SbR.mkv
Format : Matroska
Format version : Version 2
File size : 2.63 GiB
Duration : 1h 23mn
Overall bit rate : 4 497 Kbps
Movie name : Copper Canyon / Медный каньон (1950) – RuTracker
Encoded date : UTC 2015-09-20 21:08:00
Writing application : mkvmerge v7.5.0 ('Glass Culture') 64bit built on Jan 4 2015 16:48:44
Writing library : libebml v1.3.1 + libmatroska v1.4.2
Attachements : cover.jpg
Video
ID : 1
Format : AVC
Format/Info : Advanced Video Codec
Format profile : Main@L3.1
Format settings, CABAC : No
Format settings, ReFrames : 2 frames
Codec ID : V_MPEG4/ISO/AVC
Duration : 1h 23mn
Width : 940 pixels
Height : 720 pixels
Display aspect ratio : 4:3
Frame rate mode : Constant
Frame rate : 23.976 fps
Color space : YUV
Chroma subsampling : 4:2:0
Bit depth : 8 bits
Scan type : Progressive
Title : Copper.Canyon.1950.720p.WEB-DL.AAC2.0.H.264-SbR
Language : English
Default : Yes
Forced : No
Color primaries : BT.709
Transfer characteristics : BT.709
Matrix coefficients : BT.709
Color range : Limited
Audio #1
ID : 2
Format : AC-3
Format/Info : Audio Coding 3
Mode extension : CM (complete main)
Format settings, Endianness : Big
Codec ID : A_AC3
Duration : 1h 23mn
Bit rate mode : Constant
Bit rate : 192 Kbps
Channel(s) : 2 channels
Channel positions : Front: L R
Sampling rate : 48.0 KHz
Bit depth : 16 bits
Compression mode : Lossy
Stream size : 115 MiB (4%)
Title : MVO – Петербург 5-й канал
Language : Russian
Default : Yes
Forced : No
Audio #2
ID : 3
Format : AC-3
Format/Info : Audio Coding 3
Mode extension : CM (complete main)
Format settings, Endianness : Big
Codec ID : A_AC3
Duration : 1h 23mn
Bit rate mode : Constant
Bit rate : 192 Kbps
Channel(s) : 2 channels
Channel positions : Front: L R
Sampling rate : 48.0 KHz
Bit depth : 16 bits
Compression mode : Lossy
Stream size : 115 MiB (4%)
Title : Original (DVD)
Language : English
Default : No
Forced : No
Audio #3
ID : 4
Format : AAC
Format/Info : Advanced Audio Codec
Format profile : LC
Codec ID : A_AAC
Duration : 1h 23mn
Channel(s) : 2 channels
Channel positions : Front: L R
Sampling rate : 48.0 KHz
Compression mode : Lossy
Title : Original (iTunes)
Language : English
Default : No
Forced : No
Text #1
ID : 5
Format : UTF-8
Codec ID : S_TEXT/UTF8
Codec ID/Info : UTF-8 Plain Text
Language : English
Default : No
Forced : No
Text #2
ID : 6
Format : UTF-8
Codec ID : S_TEXT/UTF8
Codec ID/Info : UTF-8 Plain Text
Title : SDH
Language : English
Default : No
Forced : No
Menu
00:00:00.000 : en:A Message For Colonel Desmond
00:06:32.000 : en:Fool's Gold
00:12:22.000 : en:The Might Of Moss Balfour
00:18:35.000 : en:Curiosity About Lisa Roselle
00:27:57.000 : en:Trouble At The Rainbow
00:36:02.000 : en:Plans For The Ore Train
00:40:43.000 : en:Business, Not Pleasure
00:49:21.000 : en:Ambushed
00:54:05.000 : en:Broken Promises
01:05:31.000 : en:Travis' Specialty
01:14:28.000 : en:Johnny Takes Command
01:23:02.000 : en:Cast Of Characters

_________________
Показать сообщения:    

Текущее время: Сегодня 23:00

Часовой пояс: GMT



Вы не можете начинать темы
Вы не можете отвечать на сообщения
Вы не можете редактировать свои сообщения
Вы не можете удалять свои сообщения
Вы не можете голосовать в опросах
Вы не можете прикреплять файлы к сообщениям
Вы не можете скачивать файлы