Важное объявление!
У Нас Все раздачи мультитрекерные, при нуле пиров в релизах, можете смело вставать на закачку!
 
Автор Сообщение

HUNTER

Стаж:
4 года 4 месяца
Сообщений:
56822

Репутация: 101

[+] [-]
Вне форума [Профиль] [ЛС]

Машины сказки-Год выпуска: 2012
Страна: Россия, Студия "Анимаккорд"
Жанр: комедия, детский, семейный
Продолжительность: 12 х ~6:00 мин
Перевод: не требуется
Субтитры: нет-Режиссёр: Олег Кузовков,Олег Ужинов,Денис Червяцов-Описание: Мы подумали, что все дети, и даже некоторые родители любят смотреть или слушать сказки. А наша Маша, оказывается, очень любит их рассказывать! И рассказывает она их, как всякий ребенок с фантазией, немного на свой лад – ведь дети видят мир не так, как мы, взрослые.-Качество: DVDRip
Формат: AVI
Видео кодек: Xvid
Аудио кодек: MP3
Видео: Xvid 720x480 25fps 2000Kbps
Аудио: MPEG Audio Layer 3 44100Hz stereo 192kbps-

Список серий

2012 год
Выпуск 1
01. «Волк и семеро козлят»
02. «Гуси-лебеди»
03. «Лиса и заяц»
04. «Красная шапочка»
05. «Морозко»
06. «Волк и лиса»
Выпуск 2
01. «Вершки и корешки»
02. «Царевна-лягушка»
03. «Снегурочка»
04. «Мальчик с пальчик»
05. «Крошечка-хаврошечка»
06. «Бычок смоляной бочок»

MediaInfo

General
Complete name Машины сказки\Выпуск_2.avi
Format : AVI
Format/Info : Audio Video Interleave
File size : 528 MiB
Duration : 33mn 28s
Overall bit rate : 2 204 Kbps
Writing application : Lavf52.94.0
Video
ID : 0
Format : xvid
Codec ID : xvid
Duration : 33mn 28s
Bit rate : 2 000 Kbps
Width : 720 pixels
Height : 480 pixels
Display aspect ratio : 3:2
Frame rate : 25.000 fps
Standard : NTSC
Bits/(Pixel*Frame) : 0.231
Stream size : 479 MiB (91%)
Audio
ID : 1
Format : MPEG Audio
Format version : Version 1
Format profile : Layer 3
Mode : Joint stereo
Codec ID : 55
Codec ID/Hint : MP3
Duration : 33mn 28s
Bit rate mode : Constant
Bit rate : 192 Kbps
Channel(s) : 2 channels
Sampling rate : 44.1 KHz
Compression mode : Lossy
Stream size : 46.0 MiB (9%)
Alignment : Aligned on interleaves
Interleave, duration : 26 ms (0.65 video frame)
Writing library : LAME3.98.Д_ЅЪйZ

Скриншоты








Внимание!!! Раздача ведется путем добавления новых серий

_________________
Показать сообщения:    

Текущее время: Сегодня 06:33

Часовой пояс: GMT



Вы не можете начинать темы
Вы не можете отвечать на сообщения
Вы не можете редактировать свои сообщения
Вы не можете удалять свои сообщения
Вы не можете голосовать в опросах
Вы не можете прикреплять файлы к сообщениям
Вы не можете скачивать файлы