Важное объявление!
У Нас Все раздачи мультитрекерные, при нуле пиров в релизах, можете смело вставать на закачку!
 
Автор Сообщение

HUNTER

Стаж:
4 года 4 месяца
Сообщений:
56755

Репутация: 101

[+] [-]
Вне форума [Профиль] [ЛС]

Мачеха / Stepmom-«Be there for the joy. Be there for the tears. Be there for each other»-

Год выпуска: 1998
Страна: США
Жанр: драма, комедия
Продолжительность: 02:05:06
Перевод 1: Профессиональный (дублированный)
Перевод 2: Профессиональный (двухголосый закадровый)
Перевод 3: Авторский (одноголосый закадровый) Живов
Перевод 4: Одноголосый закадровый Антонов
Оригинальная аудиодорожка: английский
Cубтитры: русские, английские
Навигация по главам: есть-Режиссер: Крис Коламбус / Chris Columbus
В ролях: Джулия Робертс, Сьюзен Сарандон, Эд Харрис, Джена Мэлоун, Лиам Эйкен, Линн Уитфилд, Даррел Ларсон, Мэри Луиза Уилсон, Андре Б. Блейк, Рассел Харпер
Описание: Семейные узы настолько тесно сближают людей, что рано или поздно кто-то оказывается лишним. И в жизни двенадцатилетней Анны и шестилетнего Бена появилась Изабель, любовница их разведенного отца. Она делает все возможное, чтобы завоевать любовь чужих детей. Но Джеки, их настоящая мать, использует весь свой авторитет и влияние, чтобы этого не допустить.
Голос крови оказывается сильнее доброты и обаяния Изабель. Она хотела стать для Анны и Бена искренним другом, но так и осталась мачехой. Однако в тот момент, когда Джеки добилась желаемого, неожиданно выясняется, что она смертельно больна. И вот Изабель, с которой заботливая мать не мыслила жизни своих детей, оказывается тем единственным человеком, без которого их жизнь немыслима…-IMDb: 6.6/10
КиноПоиск: 8.0/10-Сэмпл-Тип релиза: WEB-DL 720p
Контейнер: MKV
Видео кодек: AVC
Аудио кодек: AC3
Видео: x264, 1280x532 (2.40:1), 23.976, 4084kbps, 0.250 bit/pixel
Аудио 1: Russian AC3, 48kHz, 2ch, 256 kbps Dub
Аудио 2: Russian AC3, 48kHz, 6ch, 448 kbps DVO
Аудио 3: Russian AC3, 48kHz, 2ch, 192 kbps AVO Живов
Аудио 4: Russian AC3, 48kHz, 2ch, 192 kbps VO Антонов
Аудио 5: English AC3, 48kHz, 6ch, 384 kbps Original
Формат субтитров: softsub (SRT)-

Доп. информация

За предоставленный WEB-DL спасибо JesperKD, аудиодорожку с дублированным переводом и переводом Антонова взял
отсюда, спасибо AlexSial, аудиодорожку с переводом Живова взял отсюда, спасибо cinemasonar и ale_x2008 , многоголосый перевод взял отсюда, спасибо siriys2007

MediaInfo

Complete name : C:\...\Stepmom.1998.720p.WEB-DL.ac3.Rus.Eng.subs.mkv
Format : Matroska
Format version : Version 4 / Version 2
File size : 4.95 GiB
Duration : 2h 5mn
Overall bit rate : 5 668 Kbps
Encoded date : UTC 2014-11-28 16:48:28
Writing application : mkvmerge v7.2.0 ('On Every Street') 32bit built on Sep 13 2014 15:42:11
Writing library : libebml v1.3.0 + libmatroska v1.4.1
Attachements : Cover.jpg
_STATISTICS_WRITING_APP : mkvmerge v7.2.0 ('On Every Street') 32bit built on Sep 13 2014 15:42:11
_STATISTICS_WRITING_DATE_UTC : 2014-11-28 16:48:28
_STATISTICS_TAGS : BPS DURATION NUMBER_OF_FRAMES NUMBER_OF_BYTES
DURATION : 02:01:17.683000000
NUMBER_OF_FRAMES : 2033
NUMBER_OF_BYTES : 66382
Video
ID : 1
Format : AVC
Format/Info : Advanced Video Codec
Format profile : Main@L3.1
Format settings, CABAC : No
Format settings, ReFrames : 2 frames
Format settings, GOP : N=1
Codec ID : V_MPEG4/ISO/AVC
Duration : 2h 5mn
Bit rate : 4 084 Kbps
Width : 1 280 pixels
Height : 532 pixels
Display aspect ratio : 2.40:1
Frame rate mode : Constant
Frame rate : 23.976 fps
Color space : YUV
Chroma subsampling : 4:2:0
Bit depth : 8 bits
Scan type : Progressive
Bits/(Pixel*Frame) : 0.250
Stream size : 3.57 GiB (72%)
Language : English
Default : Yes
Forced : No
Color primaries : BT.709
Transfer characteristics : BT.709
Matrix coefficients : BT.709
Audio #1
ID : 2
Format : AC-3
Format/Info : Audio Coding 3
Mode extension : CM (complete main)
Format settings, Endianness : Big
Codec ID : A_AC3
Duration : 2h 5mn
Bit rate mode : Constant
Bit rate : 256 Kbps
Channel(s) : 2 channels
Channel positions : Front: L R
Sampling rate : 48.0 KHz
Bit depth : 16 bits
Compression mode : Lossy
Stream size : 229 MiB (5%)
Title : Dub
Language : Russian
Default : Yes
Forced : No
Audio #2
ID : 3
Format : AC-3
Format/Info : Audio Coding 3
Mode extension : CM (complete main)
Format settings, Endianness : Big
Codec ID : A_AC3
Duration : 2h 5mn
Bit rate mode : Constant
Bit rate : 448 Kbps
Channel(s) : 6 channels
Channel positions : Front: L C R, Side: L R, LFE
Sampling rate : 48.0 KHz
Bit depth : 16 bits
Compression mode : Lossy
Stream size : 401 MiB (8%)
Title : DVO
Language : Russian
Default : No
Forced : No
Audio #3
ID : 4
Format : AC-3
Format/Info : Audio Coding 3
Mode extension : CM (complete main)
Format settings, Endianness : Big
Codec ID : A_AC3
Duration : 2h 5mn
Bit rate mode : Constant
Bit rate : 192 Kbps
Channel(s) : 2 channels
Channel positions : Front: L R
Sampling rate : 48.0 KHz
Bit depth : 16 bits
Compression mode : Lossy
Stream size : 172 MiB (3%)
Title : AVO Живов
Language : Russian
Default : No
Forced : No
Audio #4
ID : 5
Format : AC-3
Format/Info : Audio Coding 3
Mode extension : CM (complete main)
Format settings, Endianness : Big
Codec ID : A_AC3
Duration : 2h 5mn
Bit rate mode : Constant
Bit rate : 192 Kbps
Channel(s) : 2 channels
Channel positions : Front: L R
Sampling rate : 48.0 KHz
Bit depth : 16 bits
Compression mode : Lossy
Stream size : 172 MiB (3%)
Title : VO Антонов
Language : Russian
Default : No
Forced : No
Audio #5
ID : 6
Format : AC-3
Format/Info : Audio Coding 3
Mode extension : CM (complete main)
Format settings, Endianness : Big
Codec ID : A_AC3
Duration : 2h 5mn
Bit rate mode : Constant
Bit rate : 384 Kbps
Channel(s) : 6 channels
Channel positions : Front: L C R, Side: L R, LFE
Sampling rate : 48.0 KHz
Bit depth : 16 bits
Compression mode : Lossy
Stream size : 344 MiB (7%)
Title : Original
Language : English
Default : No
Forced : No
Text #1
ID : 7
Format : UTF-8
Codec ID : S_TEXT/UTF8
Codec ID/Info : UTF-8 Plain Text
Language : Russian
Default : No
Forced : No
Text #2
ID : 8
Format : UTF-8
Codec ID : S_TEXT/UTF8
Codec ID/Info : UTF-8 Plain Text
Language : English
Default : Yes
Forced : No
Text #3
ID : 9
Format : UTF-8
Codec ID : S_TEXT/UTF8
Codec ID/Info : UTF-8 Plain Text
Title : SDH
Language : English
Default : No
Forced : No
Menu
00:00:00.000 : en:Start
00:05:39.000 : en:Valentino Photo Shoot
00:08:01.000 : en:Mrs. Franklin
00:19:16.000 : en:Isabel's Surprise
00:29:24.000 : en:"Where's Your Brother?"
00:30:08.000 : en:Jackie's Ultimatum
00:32:56.000 : en:One Last Chance
00:40:14.000 : en:"It's Spread?"
00:45:00.000 : en:"Will You Marry Me?"
00:47:45.000 : en:Not Upset
00:49:40.000 : en:Isabel Breaks Through
00:55:10.000 : en:Dream Date
00:57:54.000 : en:Soccer Moms
01:00:26.000 : en:"If I Needed You"
01:05:52.000 : en:"I Know Your Secret"
01:12:00.000 : en:Telling the Kids
01:14:39.000 : en:"Ain't No Mountain High Enough"
01:20:43.000 : en:Boy Advice
01:26:51.000 : en:The Worst Day
01:29:37.000 : en:"Baby Love"
01:32:14.000 : en:A Surprise
01:34:26.000 : en:Christmas Project
01:37:13.000 : en:Jackie's Decision
01:40:06.000 : en:Model Beau
01:42:15.000 : en:Snow Blowing Blow-up
01:45:48.000 : en:Past and Future
01:51:19.000 : en:The Greatest Gifts
01:59:45.000 : en:The Harrison Family

Скриншоты


_________________
Показать сообщения:    

Текущее время: Сегодня 09:36

Часовой пояс: GMT



Вы не можете начинать темы
Вы не можете отвечать на сообщения
Вы не можете редактировать свои сообщения
Вы не можете удалять свои сообщения
Вы не можете голосовать в опросах
Вы не можете прикреплять файлы к сообщениям
Вы не можете скачивать файлы