Важное объявление!
У Нас Все раздачи мультитрекерные, при нуле пиров в релизах, можете смело вставать на закачку!
 
Автор Сообщение

HUNTER

Стаж:
4 года 4 месяца
Сообщений:
56772

Репутация: 101

[+] [-]
Вне форума [Профиль] [ЛС]

Мачете убивает / Machete Kills

-
-Страна: США, Россия
Студия: Aldamisa Entertainment
Жанр: боевик, комедия
Год выпуска: 2013
Продолжительность: 01:48:01--Перевод 1: Профессиональный (дублированный) Blu-ray
Перевод 2: Одноголосый закадровый Д. Есарев
Cубтитры: английские (full, SDH)
Оригинальная аудиодорожка: английский--Режиссер: Роберт Родригес / Robert Rodriguez
В ролях: Дэнни Трехо, Мишель Родригес, София Вергара, Эмбер Хёрд, Леди Гага, Антонио Бандерас, Кьюба Гудинг мл., Джессика Альба, Демиан Бишир, Мэл Гибсон, Чарли Шин, Ванесса Энн Хадженс, Алекса Вега--Описание: Правительство США вербует Мачете для миссии, которую не под силу выполнить простому смертному. Мачете прорывается в Мексику, чтобы схватить безумного лидера карательного отряда и эксцентричного миллиардера, торгующего оружием, который, в свою очередь, лелеет мечту начать войну планетарного масштаба и запустить смертельно опасное оружие в космос. И только Мачете может предотвратить этот глобальный хаос.--imdb | kinopoisk | Сэмпл--Тип релиза: BDRip 720p [Machete Kills 2013 720p BluRay DTS x264-CRiSC]
Контейнер: MKV
Видео: MPEG-4 AVC / 7430 kbps / 1280x694 / 23,976 fps / 1,85:1 / High Profile 4.1
Аудио 1: Russian AC3 / 5.1 / 48 kHz / 640 kbps / 16 bits |Dub, Blu-ray|
Аудио 2: Russian AC3 / 5.1 / 48 kHz / 640 kbps / 16 bits |Д. Есарев|
Аудио 3: English AC3 / 5.1 / 48 kHz / 640 kbps / 16 bits |original|
Формат субтитров: softsub [SRT]

MediaInfo

Код:
Общее
Уникальный идентификатор                 : 216450637253040371017699606223051247519 (0xA2D6E05A39BF20278EEB761EA7234F9F)
Полное имя                               : G:\HD\Мачете убивает.2013.BDRip.(720p).mkv
Формат                                   : Matroska
Версия формата                           : Version 4 / Version 2
Размер файла                             : 7,20 Гбайт
Продолжительность                        : 1 ч. 48 м.
Общий поток                              : 9540 Кбит/сек
Дата кодирования                         : UTC 2014-01-21 14:42:50
Программа кодирования                    : mkvmerge v6.7.0 ('Back to the Ground') 64bit built on Jan  8 2014 15:10:52
Библиотека кодирования                   : libebml v1.3.0 + libmatroska v1.4.1
Attachment                               : Yes
Видео
Идентификатор                            : 1
Формат                                   : AVC
Формат/Информация                        : Advanced Video Codec
Профиль формата                          : High@L4.1
Параметр CABAC формата                   : Да
Параметр ReFrames формата                : 9 кадров
Идентификатор кодека                     : V_MPEG4/ISO/AVC
Продолжительность                        : 1 ч. 48 м.
Битрейт                                  : 7430 Кбит/сек
Ширина                                   : 1280 пикселей
Высота                                   : 694 пикселя
Соотношение сторон                       : 1,85:1
Режим частоты кадров                     : Постоянный
Частота кадров                           : 23,976 кадра/сек
Цветовое пространство                    : YUV
Субдискретизация насыщенности            : 4:2:0
Битовая глубина                          : 8 бит
Тип развёртки                            : Прогрессивная
Бит/(Пиксели*Кадры)                      : 0.349
Размер потока                            : 5,61 Гбайт (78%)
Заголовок                                : Machete Kills 2013 720p BluRay DTS x264-CRiSC
Библиотека кодирования                   : x264 core 140 r2377kMod 1ca7bb9
Настройки программы                      : cabac=1 / ref=9 / deblock=1:-3:-3 / analyse=0x3:0x133 / me=tesa / subme=11 / psy=1 / fade_compensate=0.00 / psy_rd=1.00:0.00 / mixed_ref=1 / me_range=24 / chroma_me=1 / trellis=2 / 8x8dct=1 / cqm=0 / deadzone=21,11 / fast_pskip=0 / chroma_qp_offset=-2 / threads=12 / lookahead_threads=2 / sliced_threads=0 / nr=0 / decimate=0 / interlaced=0 / bluray_compat=0 / constrained_intra=0 / fgo=0 / bframes=8 / b_pyramid=2 / b_adapt=2 / b_bias=0 / direct=3 / weightb=1 / open_gop=0 / weightp=2 / keyint=250 / keyint_min=23 / scenecut=40 / intra_refresh=0 / rc_lookahead=40 / rc=crf / mbtree=0 / crf=17.0000 / qcomp=0.70 / qpmin=0 / qpmax=69 / qpstep=4 / vbv_maxrate=50000 / vbv_bufsize=62500 / crf_max=0.0 / nal_hrd=none / filler=0 / ip_ratio=1.40 / pb_ratio=1.30 / aq=1:0.80
Язык                                     : English
Default                                  : Да
Forced                                   : Нет
Основные цвета                           : BT.709
Характеристики трансфера                 : BT.709
Коэффициенты матрицы                     : BT.709
Аудио #1
Идентификатор                            : 2
Формат                                   : AC-3
Формат/Информация                        : Audio Coding 3
Расширение режима                        : CM (complete main)
Параметр Endianness формата              : Big
Идентификатор кодека                     : A_AC3
Продолжительность                        : 1 ч. 48 м.
Вид битрейта                             : Постоянный
Битрейт                                  : 640 Кбит/сек
Каналы                                   : 6 каналов
Расположение каналов                     : Front: L C R, Side: L R, LFE
Частота                                  : 48,0 КГц
Битовая глубина                          : 16 бит
Метод сжатия                             : С потерями
Размер потока                            : 495 Мбайт (7%)
Заголовок                                : Dub, Blu-ray
Язык                                     : Russian
Default                                  : Нет
Forced                                   : Нет
Аудио #2
Идентификатор                            : 3
Формат                                   : AC-3
Формат/Информация                        : Audio Coding 3
Расширение режима                        : CM (complete main)
Параметр Endianness формата              : Big
Идентификатор кодека                     : A_AC3
Продолжительность                        : 1 ч. 48 м.
Вид битрейта                             : Постоянный
Битрейт                                  : 640 Кбит/сек
Каналы                                   : 6 каналов
Расположение каналов                     : Front: L C R, Side: L R, LFE
Частота                                  : 48,0 КГц
Битовая глубина                          : 16 бит
Метод сжатия                             : С потерями
Размер потока                            : 495 Мбайт (7%)
Заголовок                                : Д. Есарев
Язык                                     : Russian
Default                                  : Да
Forced                                   : Нет
Аудио #3
Идентификатор                            : 4
Формат                                   : AC-3
Формат/Информация                        : Audio Coding 3
Расширение режима                        : CM (complete main)
Параметр Endianness формата              : Big
Идентификатор кодека                     : A_AC3
Продолжительность                        : 1 ч. 48 м.
Вид битрейта                             : Постоянный
Битрейт                                  : 640 Кбит/сек
Каналы                                   : 6 каналов
Расположение каналов                     : Front: L C R, Side: L R, LFE
Частота                                  : 48,0 КГц
Битовая глубина                          : 16 бит
Метод сжатия                             : С потерями
Размер потока                            : 495 Мбайт (7%)
Язык                                     : English
Default                                  : Нет
Forced                                   : Нет
Текст #1
Идентификатор                            : 5
Формат                                   : UTF-8
Идентификатор кодека                     : S_TEXT/UTF8
Идентификатор кодека/Информация          : UTF-8 Plain Text
Заголовок                                : full
Язык                                     : English
Default                                  : Нет
Forced                                   : Нет
Текст #2
Идентификатор                            : 6
Формат                                   : UTF-8
Идентификатор кодека                     : S_TEXT/UTF8
Идентификатор кодека/Информация          : UTF-8 Plain Text
Заголовок                                : SDH
Язык                                     : English
Default                                  : Нет
Forced                                   : Нет
Меню
00:00:00.000                             : en:00:00:00.000
00:07:48.760                             : en:00:07:48.760
00:12:12.398                             : en:00:12:12.398
00:19:27.583                             : en:00:19:27.583
00:25:25.399                             : en:00:25:25.399
00:30:35.959                             : en:00:30:35.959
00:34:15.345                             : en:00:34:15.345
00:39:33.121                             : en:00:39:33.121
00:45:35.107                             : en:00:45:35.107
00:50:30.236                             : en:00:50:30.236
00:55:07.429                             : en:00:55:07.429
00:59:08.295                             : en:00:59:08.295
01:06:55.929                             : en:01:06:55.929
01:11:56.938                             : en:01:11:56.938
01:16:38.177                             : en:01:16:38.177
01:20:34.538                             : en:01:20:34.538
01:25:08.812                             : en:01:25:08.812
01:30:13.158                             : en:01:30:13.158
01:37:43.483                             : en:01:37:43.483
01:41:54.233                             : en:01:41:54.233

Скриншоты


Дополнительно

Цитата:

За дубляж спасибо bluebird-hd
Перевод Д. Есарева доступен благодаря dikii, kidman644, Dezertir168, mihey10, ZeDOK, будулайроманов. Работа со звуком - Переводман.

Machete Kills 2013 720p BluRay DTS x264-CRiSC

Код:
RELEASE:
          RELEASE.NAME....: Machete.Kills.2013.720p.BluRay.DTS.x264-CRiSC.mkv
          IMDb............: http://www.imdb.com/title/tt2002718/
          RUNTiME.........: 01:48:01
          SiZE............: 6.89 GB
          ViDEO.CODEC.....: x264
          FRAMERATE.......: 23.976
          BiTRATE.........: ~7619 kbps
          RESOLUTiON......: 1280x694
          AUDiO...........: English DTS 5.1 1509 kbps (-core)
          CHAPTERS........: Yes
          SUBTiTLES.......: English .srt. sup
          ENCODER.........: Kuningas
          RELEASE.DATE....: 15.01.2014
          SOURCE..........: Machete Kills 2013 1080p Blu-ray AVC DTS-HD MA 5.1-LAZERS
          x264:
          x264 [info]: profile High, level 4.1
          x264 [info]: frame I:1837  Avg QP:15.52  size:171698
          x264 [info]: frame P:35811 Avg QP:16.76  size: 71524
          x264 [info]: frame B:117752 Avg QP:19.18  size: 27989
          x264 [info]: consecutive B-frames:  3.2%  3.6% 12.4% 16.3% 16.9% 39.9%  4.5%  1.5%  1.8%
          encoded 155400 frames, 3.95 fps, 7618.65 kb/s
SOURCE - ENCODE - CHD





_________________
Показать сообщения:    

Текущее время: Сегодня 09:00

Часовой пояс: GMT



Вы не можете начинать темы
Вы не можете отвечать на сообщения
Вы не можете редактировать свои сообщения
Вы не можете удалять свои сообщения
Вы не можете голосовать в опросах
Вы не можете прикреплять файлы к сообщениям
Вы не можете скачивать файлы