Важное объявление!
У Нас Все раздачи мультитрекерные, при нуле пиров в релизах, можете смело вставать на закачку!
 
Автор Сообщение

HUNTER

Стаж:
4 года 4 месяца
Сообщений:
56733

Репутация: 101

[+] [-]
Вне форума [Профиль] [ЛС]

Махни крылом
Gus - Petit oiseau, grand voyage | Yellowbird
«Bon voyage»
-
Страна: Франция, Бельгия
Жанр: мультфильм, семейный
Продолжительность: 01:30:10
Год выпуска: 2014
Перевод: Профессиональный (дублированный)
Русские субтитры: нет
Режиссёр: Кристиан Де Вита / Christian De Vita
Роли озвучивали: Сет Грин, Иветт Николь Браун, Джим Рэш, Дакота Фаннинг, Кристин Барански, Натали Бутфо, Брэйди Корбет, Артур Дюпон, Сара Форестье, Дэнни Гловер
Роли дублировали: Алексей Воробьев, Пелагея Ханова, Вадим Галыгин, Марина Кравец, Алена Бородина-ОписаниеКаждый год, все птицы улетают на юг. Должна улететь и стая нашего юного героя Чижика, но в последний момент перед перелетом на вожака стаи Дариуса нападает злой кот. Только Дариус знает дорогу на юг, и он успевает передать секрет Чижику, который теперь должен стать вожаком стаи. У Чижика нет опыта таких дальних перелетов, и тем более, опыта лидерства в стае, но ему не остается ничего, кроме как быстро учиться.-Сэмпл

IMDb: 5.20 (318)
Релиз:

Качество: BDRip-AVC Blu-Ray Disc, (Custom) 1080p] BD3D
Формат: MKV
Видео: AVC 2598 Kbps 1136 x 614 (1.850) 23.976 fps
Аудио: AC-3 448 Kbps 6 channels, 48.0 KHz Rus
Аудио 2: AC-3 448 Kbps 6 channels, 48.0 KHz Fre
Субтитры: Fre, Eng SRT

MI | Log

Log
x264 [info]: frame I:1296 Avg QP:12.17 size:112739
x264 [info]: frame P:33105 Avg QP:14.46 size: 26200
x264 [info]: frame B:95327 Avg QP:17.34 size: 8291
x264 [info]: consecutive B-frames: 4.1% 4.5% 14.3% 28.7% 13.2% 28.7% 2.9% 1.0% 0.8% 0.4% 0.5% 0.2% 0.5%
x264 [info]: mb I I16..4: 12.6% 51.4% 36.0%
x264 [info]: mb P I16..4: 1.7% 9.5% 3.0% P16..4: 22.6% 20.4% 11.0% 2.7% 0.5% skip:28.5%
x264 [info]: mb B I16..4: 0.4% 1.8% 0.4% B16..8: 22.0% 13.9% 3.1% direct: 3.3% skip:55.0% L0:40.0% L1:45.6% BI:14.3%
x264 [info]: 8x8 transform intra:65.0% inter:45.6%
x264 [info]: direct mvs spatial:100.0% temporal:0.0%
x264 [info]: coded y,uvDC,uvAC intra: 73.9% 85.7% 75.9% inter: 12.6% 13.1% 7.4%
x264 [info]: i16 v,h,dc,p: 56% 21% 5% 18%
x264 [info]: i8 v,h,dc,ddl,ddr,vr,hd,vl,hu: 11% 14% 13% 8% 9% 9% 11% 11% 14%
x264 [info]: i4 v,h,dc,ddl,ddr,vr,hd,vl,hu: 12% 14% 15% 6% 12% 10% 12% 8% 11%
x264 [info]: i8c dc,h,v,p: 41% 30% 15% 14%
x264 [info]: Weighted P-Frames: Y:1.9% UV:1.1%
x264 [info]: ref P L0: 56.5% 8.2% 14.4% 6.0% 3.9% 3.2% 2.4% 1.5% 1.2% 1.2% 1.1% 0.3% 0.0%
x264 [info]: ref B L0: 76.1% 10.2% 5.1% 2.7% 1.9% 1.4% 1.2% 0.7% 0.5% 0.2%
x264 [info]: ref B L1: 92.5% 7.5%
x264 [info]: kb/s:2667.06
x264 [total]: encoded 129728 frames, 10.48 fps, 2667.06 kb/s, duration 3:26:14.60
Format : Matroska
Format version : Version 4 / Version 2
File size : 2.25 GiB
Duration : 1h 30mn
Overall bit rate : 3 565 Kbps
Encoded date : UTC 2015-07-22 22:26:31
Writing application : mkvmerge v6.7.0 ('Back to the Ground') 32bit built on Jan 8 2014 15:03:17
Writing library : libebml v1.3.0 + libmatroska v1.4.1
Video
ID : 1
Format : AVC
Format/Info : Advanced Video Codec
Format profile : High@L4.1
Format settings, CABAC : Yes
Format settings, ReFrames : 11 frames
Codec ID : V_MPEG4/ISO/AVC
Duration : 1h 30mn
Bit rate : 2 598 Kbps
Width : 1 136 pixels
Height : 614 pixels
Display aspect ratio : 1.85:1
Frame rate mode : Constant
Frame rate : 23.976 fps
Color space : YUV
Chroma subsampling : 4:2:0
Bit depth : 8 bits
Scan type : Progressive
Bits/(Pixel*Frame) : 0.155
Stream size : 1.64 GiB (73%)
Title : Gus - Petit oiseau, grand voyage 2014 [rutracker.org]
Writing library : x264 core 146 r2538kMod 121396c
Encoding settings : cabac=1 / ref=11 / deblock=1:-2:-1 / analyse=0x3:0x133 / me=umh / subme=11 / psy=1 / fade_compensate=0.00 / psy_rd=1.00:0.05 / mixed_ref=1 / me_range=32 / chroma_me=1 / trellis=2 / 8x8dct=1 / cqm=0 / deadzone=21,11 / fast_pskip=0 / chroma_qp_offset=-3 / threads=12 / lookahead_threads=3 / sliced_threads=0 / nr=0 / decimate=1 / interlaced=0 / bluray_compat=0 / constrained_intra=0 / fgo=0 / bframes=12 / b_pyramid=2 / b_adapt=2 / b_bias=0 / direct=3 / weightb=1 / open_gop=0 / weightp=2 / keyint=250 / keyint_min=23 / scenecut=40 / intra_refresh=0 / rc_lookahead=80 / rc=crf / mbtree=0 / crf=17.1000 / qcomp=0.60 / qpmin=0 / qpmax=69 / qpstep=4 / vbv_maxrate=50000 / vbv_bufsize=62500 / crf_max=0.0 / nal_hrd=none / filler=0 / ip_ratio=1.40 / pb_ratio=1.30 / aq=3:0.90
Language : French
Default : Yes
Forced : No
Audio #1
ID : 2
Format : AC-3
Format/Info : Audio Coding 3
Mode extension : CM (complete main)
Format settings, Endianness : Big
Codec ID : A_AC3
Duration : 1h 30mn
Bit rate mode : Constant
Bit rate : 448 Kbps
Channel(s) : 6 channels
Channel positions : Front: L C R, Side: L R, LFE
Sampling rate : 48.0 KHz
Compression mode : Lossy
Stream size : 289 MiB (13%)
Title : Dub
Language : Russian
Default : Yes
Forced : No
Audio #2
ID : 3
Format : AC-3
Format/Info : Audio Coding 3
Mode extension : CM (complete main)
Format settings, Endianness : Big
Codec ID : A_AC3
Duration : 1h 30mn
Bit rate mode : Constant
Bit rate : 448 Kbps
Channel(s) : 6 channels
Channel positions : Front: L C R, Side: L R, LFE
Sampling rate : 48.0 KHz
Compression mode : Lossy
Stream size : 289 MiB (13%)
Title : Original
Language : French
Default : No
Forced : No
Text #1
ID : 4
Format : UTF-8
Codec ID : S_TEXT/UTF8
Codec ID/Info : UTF-8 Plain Text
Language : French
Default : No
Forced : No
Text #2
ID : 5
Format : UTF-8
Codec ID : S_TEXT/UTF8
Codec ID/Info : UTF-8 Plain Text
Language : English
Default : No
Forced : No
Menu
00:00:00.000 : en:00:00:00.000
00:06:45.655 : en:00:06:45.655
00:13:25.221 : en:00:13:25.221
00:20:21.262 : en:00:20:21.262
00:26:29.379 : en:00:26:29.379
00:33:07.819 : en:00:33:07.819
00:40:10.408 : en:00:40:10.408
00:49:23.460 : en:00:49:23.460
00:58:53.572 : en:00:58:53.572
01:06:34.532 : en:01:06:34.532
01:12:39.730 : en:01:12:39.730
01:20:58.228 : en:01:20:58.228[/pre]

Скриншоты




_________________
Показать сообщения:    

Текущее время: Сегодня 01:11

Часовой пояс: GMT



Вы не можете начинать темы
Вы не можете отвечать на сообщения
Вы не можете редактировать свои сообщения
Вы не можете удалять свои сообщения
Вы не можете голосовать в опросах
Вы не можете прикреплять файлы к сообщениям
Вы не можете скачивать файлы