Важное объявление!
У Нас Все раздачи мультитрекерные, при нуле пиров в релизах, можете смело вставать на закачку!
 
Автор Сообщение

HUNTER

Стаж:
4 года 4 месяца
Сообщений:
56822

Репутация: 101

[+] [-]
Вне форума [Профиль] [ЛС]

Мафия: Игра на выживание-«Город засыпает, просыпается...»-
Год выпуска: 2015
Страна: Россия
Жанр: фантастика, боевик
Продолжительность: 01:30:40-Перевод: не требуется
Субтитры: Нет
Оригинальная аудиодорожка: русский-В ролях:
Виктор Вержбицкий, Вениамин Смехов, Юрий Чурсин, Вячеслав Разбегаев, Ольга Тумайкина, Андрей Чадов, Вадим Цаллати, Виолетта Гетманская, Наталья Рудова, Евгений Коряковский-
Режиссёр: Сарик Андреасян-Описание:
Москва. Далекое будущее. Карточная игра МАФИЯ стала самым популярным в мире телешоу. Одиннадцать человек соберутся за столом, чтобы выяснить — кто из них Мирный Житель, а кто безжалостная МАФИЯ. На глазах всего мира готовится коктейль из эмоций и чувств: хитрости, страха, лжи, ненависти, презрения, боли, гордости, страсти, любви и смерти. Ведь выигравший в схватке получит огромный денежный приз, а проигравший просто умрет…- -Качество: WEB-DL 1080p
Формат: MKV
Видео кодек: AVC
Аудио кодек: AC3
Видео: 1912 x 792 (2.414) at 24.000 fps AVC at 4432 Кбит/секАудио: 6 каналов, 48,0 КГц AC-3 at 384 Кбит/сек
- -

MediaInfo

General
Unique ID : 174544209214785833381224168847007683883 (0x834FFDEE1DBE5D008AF6288D570E152B)
Complete name : C:\Users\IIB\Downloads\Мафия.Игра.на.выживание.2015.WEB-DL.[1080p].mkv
Format : Matroska
Format version : Version 4 / Version 2
File size : 3.05 GiB
Duration : 1h 30mn
Overall bit rate : 4 817 Kbps
Movie name : Мафия.Игра.на.выживание.2015.WEB-DL.[1080p].nnm-club
Encoded date : UTC 2016-02-11 22:41:42
Writing application : mkvmerge v7.7.0 ('Six Voices') 64bit built on Feb 28 2015 23:39:33
Writing library : libebml v1.3.1 + libmatroska v1.4.2
Video
ID : 1
Format : AVC
Format/Info : Advanced Video Codec
Format profile : High@L4
Format settings, CABAC : Yes
Format settings, ReFrames : 5 frames
Codec ID : V_MPEG4/ISO/AVC
Duration : 1h 30mn
Bit rate : 4 432 Kbps
Width : 1 912 pixels
Height : 792 pixels
Display aspect ratio : 2.40:1
Frame rate mode : Constant
Frame rate : 24.000 fps
Color space : YUV
Chroma subsampling : 4:2:0
Bit depth : 8 bits
Scan type : Progressive
Bits/(Pixel*Frame) : 0.122
Stream size : 2.81 GiB (92%)
Title : Мафия.Игра.на.выживание.2015.WEB-DL.[1080p]
Language : English
Default : Yes
Forced : No
Color range : Limited
Color primaries : BT.709
Transfer characteristics : BT.709
Matrix coefficients : BT.709
Audio
ID : 2
Format : AC-3
Format/Info : Audio Coding 3
Mode extension : CM (complete main)
Format settings, Endianness : Big
Codec ID : A_AC3
Duration : 1h 30mn
Bit rate mode : Constant
Bit rate : 384 Kbps
Channel(s) : 6 channels
Channel positions : Front: L C R, Side: L R, LFE
Sampling rate : 48.0 KHz
Frame rate : 31.250 fps (1536 spf)
Compression mode : Lossy
Stream size : 249 MiB (8%)
Title : iTunes
Language : Russian
Default : Yes
Forced : No
Menu
00:00:00.000 : en:1
00:02:59.000 : en:2
00:11:45.000 : en:3
00:22:40.000 : en:4
00:27:39.000 : en:5
00:36:05.000 : en:6
00:43:30.000 : en:7
00:54:40.000 : en:8
01:05:18.000 : en:9
01:13:28.000 : en:10
01:20:43.000 : en:11
01:26:33.000 : en:12

Скриншоты


_________________
Показать сообщения:    

Текущее время: Сегодня 01:26

Часовой пояс: GMT



Вы не можете начинать темы
Вы не можете отвечать на сообщения
Вы не можете редактировать свои сообщения
Вы не можете удалять свои сообщения
Вы не можете голосовать в опросах
Вы не можете прикреплять файлы к сообщениям
Вы не можете скачивать файлы