Важное объявление!
У Нас Все раздачи мультитрекерные, при нуле пиров в релизах, можете смело вставать на закачку!
 
Автор Сообщение

HUNTER

Стаж:
4 года 4 месяца
Сообщений:
56733

Репутация: 101

[+] [-]
Вне форума [Профиль] [ЛС]

Матрица: Трилогия / The Matrix: Trilogy / Open Matte -Матрица / The Matrix / Open Matte
Страна: США
Жанр: фантастика, боевик, приключения
Год выпуска: 1999
Продолжительность: 02:16:17
Перевод: Профессиональный (дублированный)
Перевод 2: Профессиональный (двухголосый закадровый) TV1000, Гланц и Королёва
Перевод 3: Одноголосый закадровый Пучков (Полный Пэ)
Cубтитры: русские, английские
Оригинальная аудиодорожка: английский
Режиссер: Энди Вачовски, Ларри Вачовски / Andy Wachowski, Larry Wachowski
В ролях: Киану Ривз, Лоренс Фишбёрн, Кэрри-Энн Мосс, Хьюго Уивинг, Джо Пантольяно, Глория Фостер, Маркус Чонг, Джулиан Араханга, Мэтт Доран, Белинда МакКлори, Энтони Рэй Паркер
Описание: Жизнь Томаса Андерсона разделена на две части: днём он самый обычный офисный работник, получающий нагоняи от начальства, а ночью превращается в хакера по имени Нео, и нет места в сети, куда он не смог бы дотянуться. Но однажды всё меняется — герой, сам того не желая, узнаёт страшную правду: всё, что его окружает — не более, чем иллюзия, Матрица, а люди — всего лишь источник питания для искусственного интеллекта, поработившего человечество. И только Нео под силу изменить расстановку сил в этом ставшем вдруг чужим и страшным мире.
Доп. информация: Различия BD и HDTV - разное наполнение кадра - 16:9 (1.78:1) -> http://screenshotcomparison.com/comparison/136205
Сэмпл: http://multi-up.com/1060478
Качество видео: HDTVRip-AVC
Формат видео: MKV
Видео: MPEG-4 AVC/H.264 / 2334 kbps / 720x576@1024x576 / 25.000 fps
Аудио: DUB (Rus) / AC3 / 6 ch / 448 kbps / 48 kHz
Аудио 2: DVO TV1000 (Rus) / AC3 / 2 ch / 192 kbps / 48 kHz
Аудио 3: DVO Гланц и Королёва (Rus) / AC3 / 6 ch / 448 kbps / 48 kHz - отдельно
Аудио 4: AVO Пучков [Полный Пэ] (Rus) / AC3 / 6 ch / 448 kbps / 48 kHz - отдельно
Аудио 5: Original (Eng) / AC3 / 6 ch / 448 kbps / 48 kHz - отдельно
Формат субтитров: softsub (SRT)
Доп. информация о субтитрах: Русские (full [2 варианта]), Английские (full)
#Сохранены оригинальные чаптеры как на Blu-ray

MediaInfo

General
Unique ID : 221153345737493091372860204883688190390 (0xA66095C82D9B0C18A118819F537A71B6)
Complete name : \\MISHGANPC\Torrents\Матрица - Трилогия (1999-2003) HDTVRip-AVC [Open Matte]\Матрица (1999) HDTVRip-AVC [Open Matte]\Матрица (1999) HDTVRip-AVC [Open Matte].mkv
Format : Matroska
Format version : Version 2
File size : 2.89 GiB
Duration : 2h 16mn
Overall bit rate : 3 033 Kbps
Movie name : Матрица / The Matrix (1999) [Open Matte]
Encoded date : UTC 2015-07-16 23:50:47
Writing application : mkvmerge v5.5.0 ('Healer') built on Apr 24 2012 23:47:03
Writing library : libebml v1.2.3 + libmatroska v1.3.0
Attachment : Yes
Video
ID : 1
Format : AVC
Format/Info : Advanced Video Codec
Format profile : High@L3.0
Format settings, CABAC : Yes
Format settings, ReFrames : 3 frames
Codec ID : V_MPEG4/ISO/AVC
Duration : 2h 16mn
Bit rate : 2 332 Kbps
Nominal bit rate : 2 500 Kbps
Width : 720 pixels
Height : 576 pixels
Display aspect ratio : 16:9
Frame rate mode : Constant
Frame rate : 25.000 fps
Standard : PAL
Color space : YUV
Chroma subsampling : 4:2:0
Bit depth : 8 bits
Scan type : Progressive
Bits/(Pixel*Frame) : 0.225
Stream size : 2.22 GiB (77%)
Title : HDTVRip (AVC) / MPEG-4 AVC/H.264 / 2334 kbps / 1024x576 / 25.000 fps
Writing library : x264 core 112
Encoding settings : cabac=1 / ref=3 / deblock=1:0:0 / analyse=0x3:0x113 / me=hex / subme=7 / psy=1 / psy_rd=1.00:0.00 / mixed_ref=1 / me_range=16 / chroma_me=1 / trellis=1 / 8x8dct=1 / cqm=0 / deadzone=21,11 / fast_pskip=1 / chroma_qp_offset=-2 / threads=1 / sliced_threads=0 / nr=0 / decimate=1 / interlaced=0 / constrained_intra=0 / bframes=3 / b_pyramid=0 / b_adapt=1 / b_bias=0 / direct=1 / weightb=1 / open_gop=0 / weightp=2 / keyint=250 / keyint_min=25 / scenecut=40 / intra_refresh=0 / rc_lookahead=40 / rc=abr / mbtree=1 / bitrate=2500 / ratetol=1.0 / qcomp=0.60 / qpmin=10 / qpmax=51 / qpstep=4 / ip_ratio=1.41 / aq=1:1.00
Language : English
Default : Yes
Forced : Yes
Audio #1
ID : 2
Format : AC-3
Format/Info : Audio Coding 3
Mode extension : CM (complete main)
Format settings, Endianness : Big
Codec ID : A_AC3
Duration : 2h 16mn
Bit rate mode : Constant
Bit rate : 448 Kbps
Channel(s) : 6 channels
Channel positions : Front: L C R, Side: L R, LFE
Sampling rate : 48.0 KHz
Bit depth : 16 bits
Compression mode : Lossy
Delay relative to video : -2s 350ms
Stream size : 437 MiB (15%)
Title : DUB (Rus) / AC3 / 6 ch / 448 kbps / 48 kHz
Language : Russian
Default : Yes
Forced : Yes
Audio #2
ID : 3
Format : AC-3
Format/Info : Audio Coding 3
Mode extension : CM (complete main)
Format settings, Endianness : Big
Codec ID : A_AC3
Duration : 2h 16mn
Bit rate mode : Constant
Bit rate : 192 Kbps
Channel(s) : 2 channels
Channel positions : Front: L R
Sampling rate : 48.0 KHz
Bit depth : 16 bits
Compression mode : Lossy
Delay relative to video : -2s 350ms
Stream size : 187 MiB (6%)
Title : DVO TV1000 (Rus) / AC3 / 2 ch / 192 kbps / 48 kHz
Language : Russian
Default : No
Forced : No
Text #1
ID : 4
Format : UTF-8
Codec ID : S_TEXT/UTF8
Codec ID/Info : UTF-8 Plain Text
Title : Full [Gеlulа/SDI] (Rus) / S_TEXT/UTF8
Language : Russian
Default : No
Forced : No
Text #2
ID : 5
Format : UTF-8
Codec ID : S_TEXT/UTF8
Codec ID/Info : UTF-8 Plain Text
Title : Full [Буравчик по переводу Пучкова (Гоблин/Goblin)] (Rus) / S_TEXT/UTF8
Language : Russian
Default : No
Forced : No
Text #3
ID : 6
Format : UTF-8
Codec ID : S_TEXT/UTF8
Codec ID/Info : UTF-8 Plain Text
Title : Full (Eng) / S_TEXT/UTF8
Language : English
Default : No
Forced : No
Menu
00:00:00.000 : en:Chapter 1
00:03:25.789 : en:Chapter 2
00:06:35.645 : en:Chapter 3
00:09:42.665 : en:Chapter 4
00:11:58.301 : en:Chapter 5
00:16:47.423 : en:Chapter 6
00:21:33.542 : en:Chapter 7
00:25:08.590 : en:Chapter 8
00:28:51.146 : en:Chapter 9
00:32:25.193 : en:Chapter 10
00:35:21.870 : en:Chapter 11
00:38:40.902 : en:Chapter 12
00:44:22.577 : en:Chapter 13
00:46:33.541 : en:Chapter 14
00:48:57.852 : en:Chapter 15
00:53:31.291 : en:Chapter 16
00:56:32.139 : en:Chapter 17
00:59:01.288 : en:Chapter 18
01:01:08.582 : en:Chapter 19
01:05:16.496 : en:Chapter 20
01:07:46.813 : en:Chapter 21
01:12:33.432 : en:Chapter 22
01:17:49.582 : en:Chapter 23
01:21:03.108 : en:Chapter 24
01:25:05.350 : en:Chapter 25
01:29:45.130 : en:Chapter 26
01:31:27.565 : en:Chapter 27
01:37:25.256 : en:Chapter 28
01:41:04.976 : en:Chapter 29
01:44:20.337 : en:Chapter 30
01:47:00.497 : en:Chapter 31
01:50:18.529 : en:Chapter 32
01:52:56.687 : en:Chapter 33
01:56:36.907 : en:Chapter 34
01:58:49.372 : en:Chapter 35
02:02:27.423 : en:Chapter 36
02:05:41.784 : en:Chapter 37
02:08:46.802 : en:Chapter 38
02:09:30.262 : en:Chapter 39
02:11:20.164 : en:Chapter 40

Скриншот c названием фильма

Скриншоты

Цитата:
Цитата:

  • Звуковая дорожка с переводом Пучкова взята из раздачи пользователя emule-C2H5OH
-Матрица: Перезагрузка / The Matrix Reloaded / Open Matte
Страна: США
Жанр: фантастика, боевик, приключения
Год выпуска: 2003
Продолжительность: 02:18:15
Перевод: Профессиональный (дублированный)
Перевод 2: Профессиональный (двухголосый закадровый) Гланц и Королёва
Перевод 3: Авторский одноголосый Живов
Cубтитры: русские, английские
Оригинальная аудиодорожка: английский
Режиссер: Энди Вачовски, Ларри Вачовски / Andy Wachowski, Larry Wachowski
В ролях: Киану Ривз, Хьюго Уивинг, Кэрри-Энн Мосс, Лоренс Фишбёрн, Хэролд Перрино, Джада Пинкетт Смит, Моника Беллуччи, Глория Фостер, Джина Торрес, Нэтаниэл Лис, Гарри Дж. Ленникс
Описание: Борцы за свободу Нео, Тринити и Морфеус продолжают руководить восстанием людей против Армии Машин. Для уничтожения системы репрессий и эксплуатации они вынуждены прибегнуть не только к арсеналу превосходного оружия, но и к своим выдающимся навыкам. Участие в миссии по спасению человеческой расы от ее полного истребления приносит им более глубокое понимание конструкции Матрицы и осознание центральной роли Нео в судьбе человечества.
Доп. информация: Различия BD и HDTV - разное наполнение кадра - 16:9 (1.78:1) -> http://screenshotcomparison.com/comparison/136206
Сэмпл: http://multi-up.com/1060479
Качество видео: HDTVRip-AVC
Формат видео: MKV
Видео: MPEG-4 AVC/H.264 / 2500 kbps / 720x576@1024x576 / 25.000 fps
Аудио: DUB (Rus) / AC3 / 6 ch / 448 kbps / 48 kHz
Аудио 2: DVO Гланц и Королёва (Rus) / AC3 / 6 ch / 448 kbps / 48 kHz - отдельно
Аудио 3: AVO Живов (Rus) / AC3 / 6 ch / 448 kbps / 48 kHz - отдельно
Аудио 4: Original (Eng) / AC3 / 6 ch / 448 kbps / 48 kHz - отдельно
Формат субтитров: softsub (SRT)
Доп. информация о субтитрах: Русские (full [2 варианта]), Английские (full)
#Сохранены оригинальные чаптеры как на Blu-ray

MediaInfo

General
Unique ID : 182820451889464614015042163007059878183 (0x8989F032BA1CAA4A9771DF6F0D136127)
Complete name : \\MISHGANPC\Torrents\Матрица - Трилогия (1999-2003) HDTVRip-AVC [Open Matte]\Матрица - Перезагрузка (2003) HDTVRip-AVC [Open Matte]\Матрица - Перезагрузка (2003) HDTVRip-AVC [Open Matte].mkv
Format : Matroska
Format version : Version 2
File size : 2.87 GiB
Duration : 2h 18mn
Overall bit rate : 2 969 Kbps
Movie name : Матрица: Перезагрузка / The Matrix Reloaded (2003) [Open Matte]
Encoded date : UTC 2015-07-16 23:51:16
Writing application : mkvmerge v5.5.0 ('Healer') built on Apr 24 2012 23:47:03
Writing library : libebml v1.2.3 + libmatroska v1.3.0
Attachment : Yes
Video
ID : 1
Format : AVC
Format/Info : Advanced Video Codec
Format profile : High@L3.0
Format settings, CABAC : Yes
Format settings, ReFrames : 3 frames
Codec ID : V_MPEG4/ISO/AVC
Duration : 2h 18mn
Bit rate : 2 500 Kbps
Width : 720 pixels
Height : 576 pixels
Display aspect ratio : 16:9
Frame rate mode : Constant
Frame rate : 25.000 fps
Standard : PAL
Color space : YUV
Chroma subsampling : 4:2:0
Bit depth : 8 bits
Scan type : Progressive
Bits/(Pixel*Frame) : 0.241
Stream size : 2.38 GiB (83%)
Title : HDTVRip (AVC) / MPEG-4 AVC/H.264 / 2500 kbps / 1024x576 / 25.000 fps
Writing library : x264 core 112
Encoding settings : cabac=1 / ref=3 / deblock=1:0:0 / analyse=0x3:0x113 / me=hex / subme=7 / psy=1 / psy_rd=1.00:0.00 / mixed_ref=1 / me_range=16 / chroma_me=1 / trellis=1 / 8x8dct=1 / cqm=0 / deadzone=21,11 / fast_pskip=1 / chroma_qp_offset=-2 / threads=1 / sliced_threads=0 / nr=0 / decimate=1 / interlaced=0 / constrained_intra=0 / bframes=3 / b_pyramid=0 / b_adapt=1 / b_bias=0 / direct=1 / weightb=1 / open_gop=0 / weightp=2 / keyint=250 / keyint_min=25 / scenecut=40 / intra_refresh=0 / rc_lookahead=40 / rc=abr / mbtree=1 / bitrate=2500 / ratetol=1.0 / qcomp=0.60 / qpmin=10 / qpmax=51 / qpstep=4 / ip_ratio=1.41 / aq=1:1.00
Language : English
Default : Yes
Forced : Yes
Audio
ID : 2
Format : AC-3
Format/Info : Audio Coding 3
Mode extension : CM (complete main)
Format settings, Endianness : Big
Codec ID : A_AC3
Duration : 2h 18mn
Bit rate mode : Constant
Bit rate : 448 Kbps
Channel(s) : 6 channels
Channel positions : Front: L C R, Side: L R, LFE
Sampling rate : 48.0 KHz
Bit depth : 16 bits
Compression mode : Lossy
Delay relative to video : -1s 700ms
Stream size : 443 MiB (15%)
Title : DUB (Rus) / AC3 / 6 ch / 448 kbps / 48 kHz
Language : Russian
Default : Yes
Forced : Yes
Text #1
ID : 3
Format : UTF-8
Codec ID : S_TEXT/UTF8
Codec ID/Info : UTF-8 Plain Text
Title : Full (Rus) / S_TEXT/UTF8
Language : Russian
Default : No
Forced : No
Text #2
ID : 4
Format : UTF-8
Codec ID : S_TEXT/UTF8
Codec ID/Info : UTF-8 Plain Text
Title : Full [SDI Media Group] (Rus) / S_TEXT/UTF8
Language : Russian
Default : No
Forced : No
Text #3
ID : 5
Format : UTF-8
Codec ID : S_TEXT/UTF8
Codec ID/Info : UTF-8 Plain Text
Title : Full (Eng) / S_TEXT/UTF8
Language : English
Default : No
Forced : No
Menu
00:00:00.000 : en:Trinity's In
00:03:50.230 : en:Trust Me
00:08:55.368 : en:Upgrades
00:12:16.903 : en:Zion
00:16:24.317 : en:Matter of Time
00:19:43.182 : en:Homecomings
00:23:29.408 : en:We Are Still Here
00:27:26.812 : en:Celebrating Humanity
00:32:01.253 : en:Smith Will Suffice
00:33:43.188 : en:What Is Control?
00:37:57.442 : en:Summoned
00:40:55.620 : en:Seraph
00:43:44.956 : en:The Oracle
00:50:42.706 : en:Swarm of Smiths
00:55:08.472 : en:Sticking It to Them
01:00:03.099 : en:The Volunteer
01:02:49.766 : en:Taste of Merovingian
01:08:52.295 : en:Persephone's Kiss
01:13:06.882 : en:Unlocking the Keymaker
01:16:21.410 : en:Blade Leapers
01:20:31.827 : en:Twin Trouble
01:22:47.129 : en:Freeway Entrance
01:26:12.501 : en:Cross-Vehicular Traffic
01:29:52.887 : en:Biker Girl
01:32:50.899 : en:Trucks Amuck
01:37:10.825 : en:The Reason We're Here
01:40:51.379 : en:Sacrifice and Sabotage
01:44:57.791 : en:So Many of Me
01:48:12.152 : en:The Architect
01:52:25.572 : en:The One's Function
01:55:42.936 : en:Neo's Choice
01:57:37.550 : en:Not Letting Go
02:01:51.471 : en:Bomb's Target
02:04:18.451 : en:Feeling the Enemy
02:07:04.116 : en:End Credits (Calm Like a Bomb, Reload, Sleeping Awake, Session, When the World Ends (Oakenfold Remix))
02:16:29.681 : en:The Matrix Revolutions Trailer

Скриншот c названием фильма

Скриншоты

-Матрица: Революция / The Matrix Revolutions / Open Matte
Страна: США
Жанр: фантастика, боевик, приключения
Год выпуска: 2003
Продолжительность: 02:09:15
Перевод: Профессиональный (дублированный)
Перевод 2: Профессиональный (многоголосый закадровый)
Перевод 3: Профессиональный (двухголосый закадровый) Гланц и Королёва
Перевод 4: Авторский одноголосый Живов
Cубтитры: русские, английские
Оригинальная аудиодорожка: английский
Режиссер: Энди Вачовски, Ларри Вачовски / Andy Wachowski, Larry Wachowski
В ролях: Киану Ривз, Хьюго Уивинг, Кэрри-Энн Мосс, Лоренс Фишбёрн, Хэролд Перрино, Джина Торрес, Джада Пинкетт Смит, Моника Беллуччи, Гарри Дж. Ленникс, Мэри Элис, Брюс Спенс
Описание: Пока армия Машин пытается уничтожить Зион, его жители из последних сил держат оборону. Но удастся ли им предотвратить полное вторжение в город кишащей орды беспощадных машин до того, как Нео соберет все свои силы и положит конец войне?
Доп. информация: Различия BD и HDTV - разное наполнение кадра - 16:9 (1.78:1) -> http://screenshotcomparison.com/comparison/136207
Сэмпл: http://multi-up.com/1060480
Качество видео: HDTVRip-AVC
Формат видео: MKV
Видео: MPEG-4 AVC/H.264 / 2500 kbps / 720x576@1024x576 / 25.000 fps
Аудио: DUB (Rus) / AC3 / 6 ch / 384 kbps / 48 kHz
Аудио 2: MVO (Rus) / AC3 / 6 ch / 384 kbps / 48 kHz
Аудио 3: DVO Гланц и Королёва (Rus) / AC3 / 6 ch / 448 kbps / 48 kHz - отдельно
Аудио 4: AVO Живов (Rus) / AC3 / 6 ch / 448 kbps / 48 kHz - отдельно
Аудио 5: Original (Eng) / AC3 / 6 ch / 448 kbps / 48 kHz - отдельно
Формат субтитров: softsub (SRT)
Доп. информация о субтитрах: Русские (full), Английские (full)
#Сохранены оригинальные чаптеры как на Blu-ray

MediaInfo

General
Unique ID : 254097717237567371947773649589407039741 (0xBF2970B3C100FF749B1F82FB5507C0FD)
Complete name : \\MISHGANPC\Torrents\Матрица - Трилогия (1999-2003) HDTVRip-AVC [Open Matte]\Матрица - Революция (2003) HDTVRip-AVC [Open Matte]\Матрица - Революция (2003) HDTVRip-AVC [Open Matte].mkv
Format : Matroska
Format version : Version 2
File size : 2.95 GiB
Duration : 2h 9mn
Overall bit rate : 3 263 Kbps
Movie name : Матрица: Революция / The Matrix Revolutions (2003) [Open Matte]
Encoded date : UTC 2015-07-16 23:52:24
Writing application : mkvmerge v5.5.0 ('Healer') built on Apr 24 2012 23:47:03
Writing library : libebml v1.2.3 + libmatroska v1.3.0
Attachment : Yes
Video
ID : 1
Format : AVC
Format/Info : Advanced Video Codec
Format profile : High@L3.0
Format settings, CABAC : Yes
Format settings, ReFrames : 3 frames
Codec ID : V_MPEG4/ISO/AVC
Duration : 2h 9mn
Bit rate : 2 500 Kbps
Width : 720 pixels
Height : 576 pixels
Display aspect ratio : 16:9
Frame rate mode : Constant
Frame rate : 25.000 fps
Standard : PAL
Color space : YUV
Chroma subsampling : 4:2:0
Bit depth : 8 bits
Scan type : Progressive
Bits/(Pixel*Frame) : 0.241
Stream size : 2.19 GiB (74%)
Title : HDTVRip (AVC) / MPEG-4 AVC/H.264 / 2500 kbps / 1024x576 / 25.000 fps
Writing library : x264 core 112
Encoding settings : cabac=1 / ref=3 / deblock=1:0:0 / analyse=0x3:0x113 / me=hex / subme=7 / psy=1 / psy_rd=1.00:0.00 / mixed_ref=1 / me_range=16 / chroma_me=1 / trellis=1 / 8x8dct=1 / cqm=0 / deadzone=21,11 / fast_pskip=1 / chroma_qp_offset=-2 / threads=1 / sliced_threads=0 / nr=0 / decimate=1 / interlaced=0 / constrained_intra=0 / bframes=3 / b_pyramid=0 / b_adapt=1 / b_bias=0 / direct=1 / weightb=1 / open_gop=0 / weightp=2 / keyint=250 / keyint_min=25 / scenecut=40 / intra_refresh=0 / rc_lookahead=40 / rc=abr / mbtree=1 / bitrate=2500 / ratetol=1.0 / qcomp=0.60 / qpmin=10 / qpmax=51 / qpstep=4 / ip_ratio=1.41 / aq=1:1.00
Language : English
Default : Yes
Forced : Yes
Audio #1
ID : 2
Format : AC-3
Format/Info : Audio Coding 3
Mode extension : CM (complete main)
Format settings, Endianness : Big
Codec ID : A_AC3
Duration : 2h 9mn
Bit rate mode : Constant
Bit rate : 384 Kbps
Channel(s) : 6 channels
Channel positions : Front: L C R, Side: L R, LFE
Sampling rate : 48.0 KHz
Bit depth : 16 bits
Compression mode : Lossy
Delay relative to video : -2s 750ms
Stream size : 355 MiB (12%)
Title : DUB (Rus) / AC3 / 6 ch / 384 kbps / 48 kHz
Language : Russian
Default : Yes
Forced : Yes
Audio #2
ID : 3
Format : AC-3
Format/Info : Audio Coding 3
Mode extension : CM (complete main)
Format settings, Endianness : Big
Codec ID : A_AC3
Duration : 2h 9mn
Bit rate mode : Constant
Bit rate : 384 Kbps
Channel(s) : 6 channels
Channel positions : Front: L C R, Side: L R, LFE
Sampling rate : 48.0 KHz
Bit depth : 16 bits
Compression mode : Lossy
Delay relative to video : -2s 750ms
Stream size : 355 MiB (12%)
Title : MVO (Rus) / AC3 / 6 ch / 384 kbps / 48 kHz
Language : Russian
Default : No
Forced : No
Text #1
ID : 4
Format : UTF-8
Codec ID : S_TEXT/UTF8
Codec ID/Info : UTF-8 Plain Text
Title : Full (Rus) / S_TEXT/UTF8
Language : Russian
Default : No
Forced : No
Text #2
ID : 5
Format : UTF-8
Codec ID : S_TEXT/UTF8
Codec ID/Info : UTF-8 Plain Text
Title : Full (Eng) / S_TEXT/UTF8
Language : English
Default : No
Forced : No
Menu
00:00:00.000 : en:20 Hours to Go
00:03:55.402 : en:Trapped
00:07:33.119 : en:The Connection Matters
00:10:19.953 : en:Down Here I'm God
00:14:44.383 : en:Coat-Check Chaos
00:17:58.744 : en:Interesting Deal
00:23:33.245 : en:The End Is Coming
00:30:06.304 : en:We Meet at Last
00:35:35.633 : en:The Logos Found
00:39:34.205 : en:Volunteers
00:42:58.910 : en:I Believe in Him
00:46:43.300 : en:Nothing's Changed
00:49:02.606 : en:Stowaway
00:51:53.610 : en:See Your Enemy
00:58:00.644 : en:Give 'em Hell
01:00:19.115 : en:Detected
01:02:29.746 : en:Breaching the Dome
01:08:00.910 : en:Storming Sentinels
01:10:29.225 : en:Trying to Keep Up
01:14:33.803 : en:Unfinished Business
01:18:23.365 : en:Hell of a Pilot
01:23:08.984 : en:Report to the Council
01:25:55.817 : en:Believers
01:29:13.348 : en:Glimpse of the Sky
01:31:51.673 : en:Saying What Matters
01:36:51.472 : en:A Truce
01:41:55.276 : en:It Ends Tonight
01:44:53.120 : en:Urban Splash
01:48:06.647 : en:Neo's Choice
01:51:30.851 : en:Inevitable and Over
01:55:05.899 : en:Real Peace
01:57:31.211 : en:Freedom and Sunlight
02:00:12.372 : en:End Credits

Скриншот c названием фильма

Скриншоты

-

_________________
Показать сообщения:    

Текущее время: Сегодня 03:11

Часовой пояс: GMT



Вы не можете начинать темы
Вы не можете отвечать на сообщения
Вы не можете редактировать свои сообщения
Вы не можете удалять свои сообщения
Вы не можете голосовать в опросах
Вы не можете прикреплять файлы к сообщениям
Вы не можете скачивать файлы