Важное объявление!
У Нас Все раздачи мультитрекерные, при нуле пиров в релизах, можете смело вставать на закачку!
 
Автор Сообщение

HUNTER

Стаж:
4 года 4 месяца
Сообщений:
56853

Репутация: 101

[+] [-]
Вне форума [Профиль] [ЛС]

Мастер и Маргарита
Страна: Россия
Жанр: драма, детектив
Год выпуска: 1994
Продолжительность: 02:03:10
Режиссер: Юрий Кара
В ролях: Михаил Ульянов, Валентин Гафт, Анастасия Вертинская, Виктор Раков, Александр Филиппенко, Сергей Гармаш, Лев Дуров, Сергей Никоненко, Николай Бурляев, Леонид Куравлёв
Описание: Действие происходит в 1920—1930-е годы в сталинской Москве и в годы жизни Иисуса Христа в Ершалаиме. Мастер с гениальным озарением описал последние дни жизни Спасителя в своем романе о Понтии Пилате, за который поплатился свободой. Его тайная возлюбленная Маргарита готова на сделку с дьяволом, лишь бы спасти Мастера. В это время некто Воланд, посетивший Москву со своей свитой, наводит ужас на обывателей. Но в мире, где укоренилось зло, и засела нечистая сила, проделки сатаны, окрашенные искрометным юмором, оборачиваются возмездием за людские грехи и пороки.
Доп. информация: сохранены главы.
Меню: нет
Качество Видео: BDRip (1080p)
Формат Видео: MKV
Видео: MPEG-4 AVC, 1472x1080 (1.36:1), 11,7 Mbps, 24 fps
Аудио: AC3, 6 ch, 48 Khz, 448 Kbps

MediaInfo

General
Complete name : X:\Blue-ray\Fid\Мастер и Маргарита.1080p.mkv
Format : Matroska
File size : 10.4 GiB
Duration : 2h 3mn
Overall bit rate : 12.1 Mbps
Movie name : Мастер и Маргарита_Rip1080_HDReactor.org
Encoded date : UTC 2011-05-11 09:02:13
Writing application : mkvmerge v3.4.0 ('Rapunzel') сборка от May 15 2010 09:38:20
Writing library : libebml v0.8.0 + libmatroska v0.9.0
Video
ID : 1
Format : AVC
Format/Info : Advanced Video Codec
Format profile : High@L4.1
Format settings, CABAC : Yes
Format settings, ReFrames : 4 frames
Codec ID : V_MPEG4/ISO/AVC
Duration : 2h 3mn
Bit rate mode : Variable
Bit rate : 11.7 Mbps
Maximum bit rate : 40.0 Mbps
Width : 1 472 pixels
Height : 1 080 pixels
Display aspect ratio : 4:3
Frame rate : 24.000 fps
Color space : YUV
Chroma subsampling : 4:2:0
Bit depth : 8 bits
Scan type : Progressive
Bits/(Pixel*Frame) : 0.306
Stream size : 9.83 GiB (94%)
Writing library : x264 core 114 r1913 5fd3dce
Encoding settings : cabac=1 / ref=5 / deblock=1:-3:-3 / analyse=0x3:0x113 / me=umh / subme=10 / psy=1 / psy_rd=1.00:0.10 / mixed_ref=1 / me_range=32 / chroma_me=1 / trellis=2 / 8x8dct=1 / cqm=0 / deadzone=21,11 / fast_pskip=0 / chroma_qp_offset=-4 / threads=6 / sliced_threads=0 / slices=4 / nr=0 / decimate=0 / interlaced=0 / constrained_intra=0 / bframes=7 / b_pyramid=1 / b_adapt=2 / b_bias=0 / direct=1 / weightb=1 / open_gop=0 / weightp=2 / keyint=250 / keyint_min=23 / scenecut=40 / intra_refresh=0 / rc_lookahead=40 / rc=2pass / mbtree=0 / bitrate=11666 / ratetol=1.0 / qcomp=0.60 / qpmin=10 / qpmax=51 / qpstep=4 / cplxblur=20.0 / qblur=0.5 / vbv_maxrate=40000 / vbv_bufsize=30000 / nal_hrd=vbr / ip_ratio=1.40 / pb_ratio=1.30 / aq=1:0.80
Language : Russian
Audio
ID : 2
Format : AC-3
Format/Info : Audio Coding 3
Mode extension : CM (complete main)
Codec ID : A_AC3
Duration : 2h 3mn
Bit rate mode : Constant
Bit rate : 448 Kbps
Channel(s) : 6 channels
Channel positions : Front: L C R, Side: L R, LFE
Sampling rate : 48.0 KHz
Bit depth : 16 bits
Stream size : 395 MiB (4%)
Language : Russian
Menu
00:00:00.000 : en:00:00:00.000
00:07:21.083 : en:00:07:21.083
00:18:49.167 : en:00:18:49.167
00:26:21.375 : en:00:26:21.375
00:36:36.958 : en:00:36:36.958
00:50:56.917 : en:00:50:56.917
00:58:55.542 : en:00:58:55.542
01:11:31.125 : en:01:11:31.125
01:26:52.625 : en:01:26:52.625
01:46:22.000 : en:01:46:22.000
02:01:00.000 : en:02:01:00.000

Скриншоты


_________________
Показать сообщения:    

Текущее время: Сегодня 12:12

Часовой пояс: GMT



Вы не можете начинать темы
Вы не можете отвечать на сообщения
Вы не можете редактировать свои сообщения
Вы не можете удалять свои сообщения
Вы не можете голосовать в опросах
Вы не можете прикреплять файлы к сообщениям
Вы не можете скачивать файлы
Наши партнеры: интернет магазин Ивановского трикотажа textilla.ru