Важное объявление!
У Нас Все раздачи мультитрекерные, при нуле пиров в релизах, можете смело вставать на закачку!
 
Автор Сообщение

HUNTER

Стаж:
4 года 4 месяца
Сообщений:
56798

Репутация: 101

[+] [-]
Вне форума [Профиль] [ЛС]

МарсианинThe Martian«Верните его домой»-
Год выпуска: 2015
Страна: США, Великобритания
Жанр: фантастика, приключения
Продолжительность: 02:21:37-Перевод: Профессиональный (полное дублирование) [Лицензия]
Субтитры: Русские (форсированные, полные), Украинские (форсированные, полные), Английские
Режиссер: Ридли Скотт / Ridley Scott
В ролях: Мэтт Дэймон (Mark Watney), Джессика Честейн (Melissa Lewis), Чиветель Эджиофор (Vincent Kapoor), Кристен Уиг (Annie Montrose), Джефф Дэниелс (Teddy Sanders), Майкл Пенья (Rick Martinez), Шон Бин (Mitch Henderson), Кейт Мара (Beth Johanssen), Себастьян Стэн (Chris Beck), Аксель Хенни (Alex Vogel), Бенедикт Вонг (Bruce Ng), Маккензи Дэвис (Mindy Park)-Описание: Марсианская миссия «Арес-3» в процессе работы была вынуждена экстренно покинуть планету из-за надвигающейся песчаной бури. Инженер и биолог Марк Уотни получил повреждение скафандра во время песчаной бури. Сотрудники миссии, посчитав его погибшим, эвакуировались с планеты, оставив Марка одного.
Очнувшись, Уотни обнаруживает, что связь с Землёй отсутствует, но при этом полностью функционирует жилой модуль. Главный герой начинает искать способ продержаться на имеющихся запасах еды, витаминов, воды и воздуха ещё 4 года до прилёта следующей миссии «Арес-4».
--Качество: BDRip-AVC
Контейнер: MKV
Видео кодек: AVC
Аудио кодек: AC3
Видео: AVC, 1040x432 (2.40:1), 1500 kbps, 23,976 fps, 0,139 bpp
Аудио №1: Русский / AC3 / 5.1 / 48 kHz / 448 kbps / 16 bit
Аудио №2: Английский / AC3 / 5.1 / 48 kHz / 448 kbps / 16 bit- -

Скриншоты

Media Info

General
Unique ID : 245643706260123490821270245466209726803 (0xB8CD41C7B71CF2B3990E5E30448B3153)
Complete name : D:\Марсианин.2015.BDRip-AVC.Dub.mkv
Format : Matroska
Format version : Version 4 / Version 2
File size : 2.37 GiB
Duration : 2h 21mn
Overall bit rate : 2 398 Kbps
Encoded date : UTC 2016-01-09 23:00:36
Writing application : mkvmerge v7.8.0 ('River Man') 32bit built on Mar 27 2015 16:18:02
Writing library : libebml v1.3.1 + libmatroska v1.4.2
_STATISTICS_WRITING_APP : mkvmerge v7.8.0 ('River Man') 32bit built on Mar 27 2015 16:18:02
_STATISTICS_WRITING_DATE_UT : 2016-01-09 23:00:36
_STATISTICS_TAGS : BPS DURATION NUMBER_OF_FRAMES NUMBER_OF_BYTES
DURATION : 02:13:11.683000000
NUMBER_OF_FRAMES : 1793
NUMBER_OF_BYTES : 60116
Video
ID : 1
Format : AVC
Format/Info : Advanced Video Codec
Format profile : High@L4.1
Format settings, CABAC : No
Format settings, ReFrames : 4 frames
Codec ID : V_MPEG4/ISO/AVC
Duration : 2h 21mn
Bit rate : 1 500 Kbps
Width : 1 040 pixels
Height : 432 pixels
Display aspect ratio : 2.40:1
Original display aspect rat : 2.40:1
Frame rate mode : Constant
Frame rate : 23.976 fps
Color space : YUV
Chroma subsampling : 4:2:0
Bit depth : 8 bits
Scan type : Progressive
Bits/(Pixel*Frame) : 0.139
Stream size : 1.44 GiB (61%)
Writing library : x264 core 128 r2216M 198a7ea
Encoding settings : cabac=0 / ref=5 / deblock=0:-1:-1 / analyse=0x3:0x133 / me=umh / subme=9 / psy=1 / psy_rd=1.00:0.15 / mixed_ref=1 / me_range=32 / chroma_me=1 / trellis=0 / 8x8dct=1 / cqm=0 / deadzone=21,11 / fast_pskip=1 / chroma_qp_offset=-2 / threads=4 / lookahead_threads=1 / sliced_threads=0 / nr=0 / decimate=1 / interlaced=0 / bluray_compat=0 / constrained_intra=0 / bframes=5 / b_pyramid=1 / b_adapt=1 / b_bias=0 / direct=3 / weightb=0 / open_gop=0 / weightp=0 / keyint=230 / keyint_min=23 / scenecut=40 / intra_refresh=0 / rc_lookahead=40 / rc=2pass / mbtree=1 / bitrate=1500 / ratetol=1.0 / qcomp=0.60 / qpmin=10 / qpmax=51 / qpstep=4 / cplxblur=20.0 / qblur=0.5 / ip_ratio=1.40 / aq=1:1.00
Default : Yes
Forced : No
Audio #1
ID : 2
Format : AC-3
Format/Info : Audio Coding 3
Mode extension : CM (complete main)
Format settings, Endianness : Big
Codec ID : A_AC3
Duration : 2h 21mn
Bit rate mode : Constant
Bit rate : 448 Kbps
Channel(s) : 6 channels
Channel positions : Front: L C R, Side: L R, LFE
Sampling rate : 48.0 KHz
Compression mode : Lossy
Stream size : 454 MiB (19%)
Language : Russian
Default : Yes
Forced : No
_STATISTICS_WRITING_APP : mkvmerge v7.8.0 ('River Man') 32bit built on Mar 27 2015 16:18:02
_STATISTICS_WRITING_DATE_UT : 2016-01-09 23:00:36
_STATISTICS_TAGS : BPS DURATION NUMBER_OF_FRAMES NUMBER_OF_BYTES
DURATION : 02:21:37.531000000
NUMBER_OF_FRAMES : 203737
NUMBER_OF_BYTES : 1592646907
Audio #2
ID : 3
Format : AC-3
Format/Info : Audio Coding 3
Mode extension : CM (complete main)
Format settings, Endianness : Big
Codec ID : A_AC3
Duration : 2h 21mn
Bit rate mode : Constant
Bit rate : 448 Kbps
Channel(s) : 6 channels
Channel positions : Front: L C R, Side: L R, LFE
Sampling rate : 48.0 KHz
Compression mode : Lossy
Stream size : 454 MiB (19%)
Language : English
Default : No
Forced : No
_STATISTICS_WRITING_APP : mkvmerge v7.8.0 ('River Man') 32bit built on Mar 27 2015 16:18:02
_STATISTICS_WRITING_DATE_UT : 2016-01-09 23:00:36
_STATISTICS_TAGS : BPS DURATION NUMBER_OF_FRAMES NUMBER_OF_BYTES
DURATION : 02:21:37.600000000
NUMBER_OF_FRAMES : 265550
NUMBER_OF_BYTES : 475865600
Text #1
ID : 4
Format : UTF-8
Codec ID : S_TEXT/UTF8
Codec ID/Info : UTF-8 Plain Text
Title : форсированные
Language : Russian
Default : Yes
Forced : No
Text #2
ID : 5
Format : UTF-8
Codec ID : S_TEXT/UTF8
Codec ID/Info : UTF-8 Plain Text
Language : Russian
Default : No
Forced : No
Text #3
ID : 6
Format : UTF-8
Codec ID : S_TEXT/UTF8
Codec ID/Info : UTF-8 Plain Text
Title : форсированные
Language : Ukrainian
Default : No
Forced : No
Text #4
ID : 7
Format : UTF-8
Codec ID : S_TEXT/UTF8
Codec ID/Info : UTF-8 Plain Text
Language : Ukrainian
Default : No
Forced : No
Text #5
ID : 8
Format : UTF-8
Codec ID : S_TEXT/UTF8
Codec ID/Info : UTF-8 Plain Text
Language : English
Default : No
Forced : No
Menu
00:00:00.000 : en:Chapter 1
00:03:22.284 : en:Chapter 2
00:10:08.982 : en:Chapter 3
00:15:24.590 : en:Chapter 4
00:18:25.186 : en:Chapter 5
00:21:34.375 : en:Chapter 6
00:24:28.090 : en:Chapter 7
00:28:52.689 : en:Chapter 8
00:31:36.644 : en:Chapter 9
00:34:21.099 : en:Chapter 10
00:39:13.434 : en:Chapter 11
00:41:21.768 : en:Chapter 12
00:46:23.530 : en:Chapter 13
00:49:25.085 : en:Chapter 14
00:56:15.746 : en:Chapter 15
00:59:40.492 : en:Chapter 16
01:02:23.822 : en:Chapter 17
01:06:53.134 : en:Chapter 18
01:09:52.979 : en:Chapter 19
01:13:51.301 : en:Chapter 20
01:18:38.255 : en:Chapter 21
01:22:52.466 : en:Chapter 22
01:30:41.269 : en:Chapter 23
01:37:30.094 : en:Chapter 24
01:43:31.997 : en:Chapter 25
01:46:16.286 : en:Chapter 26
01:50:18.737 : en:Chapter 27
01:54:07.966 : en:Chapter 28
01:57:49.311 : en:Chapter 29
02:04:41.681 : en:Chapter 30
02:11:05.731 : en:Chapter 31
02:13:28.792 : en:Chapter 32

_________________
Показать сообщения:    

Текущее время: Сегодня 23:34

Часовой пояс: GMT



Вы не можете начинать темы
Вы не можете отвечать на сообщения
Вы не можете редактировать свои сообщения
Вы не можете удалять свои сообщения
Вы не можете голосовать в опросах
Вы не можете прикреплять файлы к сообщениям
Вы не можете скачивать файлы