Важное объявление!
У Нас Все раздачи мультитрекерные, при нуле пиров в релизах, можете смело вставать на закачку!
 
Автор Сообщение

HUNTER

Стаж:
4 года 4 месяца
Сообщений:
56790

Репутация: 101

[+] [-]
Вне форума [Профиль] [ЛС]

Марс и дальше / Mars and Beyond (Disneyland: Season 04, Episode 12)
Год выпуска: 1957
Страна: США
Продолжительность: 00:47:51
Перевод: Одноголосый закадровый den904 по субтитрам от (Annie Phoenix)
Русские субтитры: есть
Режиссер: Ward Kimball
Описание: C начала появления разума у людей их интересовало что находится выше их голов.
Человек хотел понять мир, в котором он живёт. А также знать есть ли жизнь и в других мирах?
Так и в этом увлекательном полумультфильме мы совершим путешествие от представлений древних о мире и до наших дней и сконцентрируемся на Марсе.
Качество: DVDRip
Формат: MKV
Видео: DivX 5, 1356 кбит/с, 640х480, 23.976 к/с
Аудио 1: Русский ЛО (den904) (AC3, 2 ch, 192 Кбит/с)
Аудио 2: Английский (AC3, 2 ch, 192 Кбит/с)
Субтитры: Русские (Annie Phoenix)
Спонсор озвучки: Андрей Берг

Ссылка на другие раздачи на трекере
Sample

MediaInfo

Общее
Уникальный идентификатор : 180996880074365766529670550669885222321 (0x882ABB2A85B4C39693A0E562B7CCADB1)
Полное имя : Mars and Beyond Disneyland s04 e12 1957.DivX5.DVDRip.kosmoaelita.mkv
Формат : Matroska
Версия формата : Version 4 / Version 2
Размер файла : 645 Мбайт
Продолжительность : 52 м.
Общий поток : 1710 Кбит/сек
Название фильма : Mars and Beyond 1957 (Disneyland: Season 04, Episode 12) / kosmoaelita
Дата кодирования : UTC 2014-09-28 19:50:23
Программа кодирования : mkvmerge v6.6.0 ('The Edge Of The In Between') built on Dec 1 2013 17:55:00
Библиотека кодирования : libebml v1.3.0 + libmatroska v1.4.1
Видео
Идентификатор : 1
Формат : MPEG-4 Visual
Параметр BVOP формата : Да
Параметр QPel формата : Нет
Параметр GMC формата : Без точки перехода
Параметр матрицы формата : Default (H.263)
Идентификатор кодека : V_MS/VFW/FOURCC / DX50
Идентификатор кодека/Подсказка : DivX 5
Продолжительность : 52 м.
Битрейт : 1356 Кбит/сек
Ширина : 640 пикселей
Высота : 480 пикселей
Соотношение сторон : 4:3
Режим частоты кадров : Постоянный
Частота кадров : 23,976 кадра/сек
Цветовое пространство : YUV
Субдискретизация насыщенности : 4:2:0
Битовая глубина : 8 бит
Тип развёртки : Прогрессивная
Метод сжатия : С потерями
Бит/(Пиксели*Кадры) : 0.184
Размер потока : 511 Мбайт (79%)
Библиотека кодирования : DivX 5.2.1 Beta (UTC 2004-09-08)
Default : Да
Forced : Нет
Аудио #1
Идентификатор : 2
Формат : AC-3
Формат/Информация : Audio Coding 3
Расширение режима : CM (complete main)
Параметр Endianness формата : Big
Идентификатор кодека : A_AC3
Продолжительность : 52 м.
Вид битрейта : Постоянный
Битрейт : 192 Кбит/сек
Каналы : 2 канала
Расположение каналов : Front: L R
Частота : 48,0 КГц
Битовая глубина : 16 бит
Метод сжатия : С потерями
Размер потока : 72,4 Мбайт (11%)
Заголовок : Русский ЛО (den904) - при поддержке А.Берг
Язык : Russian
Default : Да
Forced : Нет
Аудио #2
Идентификатор : 3
Формат : MPEG Audio
Версия формата : Version 1
Профиль формата : Layer 3
Режим : Joint stereo
Расширение режима : MS Stereo
Идентификатор кодека : A_MPEG/L3
Идентификатор кодека/Подсказка : MP3
Продолжительность : 52 м.
Вид битрейта : Постоянный
Битрейт : 128 Кбит/сек
Каналы : 2 канала
Частота : 48,0 КГц
Метод сжатия : С потерями
Размер потока : 48,2 Мбайт (7%)
Библиотека кодирования : LAME3.96r
Настройки программы : -m j -V 4 -q 2 -lowpass 17.5 -b 128
Язык : English
Default : Нет
Forced : Нет
Текст #1
Идентификатор : 4
Формат : VobSub
Режим смешивания : zlib
Идентификатор кодека : S_VOBSUB
Идентификатор кодека/Информация : The same subtitle format used on DVDs
Заголовок : Русский (Annie Phoenix) VobSub
Язык : Russian
Default : Да
Forced : Нет
Текст #2
Идентификатор : 5
Формат : UTF-8
Идентификатор кодека : S_TEXT/UTF8
Идентификатор кодека/Информация : UTF-8 Plain Text
Заголовок : Русский (Annie Phoenix) srt
Язык : Russian
Default : Нет
Forced : Нет

Скриншоты

Скринлист

Скриншот с названием

Другие фильмы студии Дисней о космосе
Человек в космосе / Man in space (1955)
http://rutracker.org/forum/viewtopic.php?t=3097094Человек и Луна / Man & the Moon (1955)http://rutracker.org/forum/viewtopic.php?t=3342625

_________________
Показать сообщения:    

Текущее время: Сегодня 12:22

Часовой пояс: GMT



Вы не можете начинать темы
Вы не можете отвечать на сообщения
Вы не можете редактировать свои сообщения
Вы не можете удалять свои сообщения
Вы не можете голосовать в опросах
Вы не можете прикреплять файлы к сообщениям
Вы не можете скачивать файлы