Важное объявление!
У Нас Все раздачи мультитрекерные, при нуле пиров в релизах, можете смело вставать на закачку!
 
Автор Сообщение

HUNTER

Стаж:
4 года 4 месяца
Сообщений:
56733

Репутация: 101

[+] [-]
Вне форума [Профиль] [ЛС]

Марни / Marnie
Страна: США
Жанр: триллер, детектив, мелодрама, драма
Год выпуска: 1964
Продолжительность: 02:10:23
Перевод: Профессиональный (дублированный)
Перевод: Профессиональный (многоголосый закадровый)
Перевод: Одноголосый закадровый Валерий Казаков
Cубтитры: Russian x3 (BD, DVD, Forced), English, English SDH
Оригинальная аудиодорожка: английский
Режиссер: Альфред Хичкок / Alfred Hitchcock
В ролях: Типпи Хедрен, Шон Коннери, Дайан Бэйкер, Мартин Габел, Луиз Лэтэм, Боб Суини, Милтон Зельцер, Алан Напье, Генри Бекман, Эдит Эвансон
Описание: Героиня фильма Марни Эдгар устраивается на работу в различные фирмы под чужим именем и, проработав некоторое время, исчезает с деньгами компаний, не оставляя никаких следов. Она неуловима, так как постоянно меняет не только имена, но и внешность. Марк Ратлэнд, деловой партнер одной из бывших жертв Марни, разоблачает ее, когда она устраивается к нему на работу. Но вместо того, чтобы сдать Марни полиции, Марк шантажом заставляет ее выйти за него замуж. Он узнает о глубоко сидящем в ней страхе перед мужчинами, сексом, грозами и красным цветом…
Доп. информация: Дубляж с исходника Marnie 1964 1080p GER Blu-ray AVC DTS-HD MA 2.0 (thnx Aniki @ HDBits), многоголоска и одноголоска Казакова - отсюда. Т.к. на DVD отсутствует минута фильма, на MVO и VO были сделаны вставки из дубляжа на эту минуту. В русских субтитрах (с BD и DVD) исправлено огромное количество ошибок и капса.
Сэмпл: https://yadi.sk/i/M7m3HeN7XGDA8
Тип релиза: BDRemux 1080p
Контейнер: MKV
Видео: MPEG-4 AVC Video / 32151 kbps / 1080p / 23,976 fps / 16:9 / High Profile 4.1
Аудио: Russian / DTS Audio / 2.0 / 48 kHz / 448 kbps / 24-bit (Дубляж)
Аудио: Russian / Dolby Digital Audio / 2.0 / 48 kHz / 192 kbps (Многоголосый закадровый)
Аудио: Russian / Dolby Digital Audio / 2.0 / 48 kHz / 192 kbps (Одноголосый закадровый - Валерий Казаков)
Аудио: English / DTS-HD Master Audio / 2.0 / 48 kHz / 1968 kbps / 24-bit (DTS Core: 2.0 / 48 kHz / 1509 kbps / 24-bit)

MediaInfo

Общее
Уникальный идентификатор : 188853433237445342579791452706415922682 (0x8E13D924C3BC5AD887BBAF71F45D4DFA)
Формат : Matroska
Версия формата : Version 4 / Version 2
Размер файла : 31,7 Гбайт
Продолжительность : 2 ч. 10 м.
Режим общего битрейта : Переменный
Общий поток : 34,8 Мбит/сек
Название фильма : Marnie (1964)
Дата кодирования : UTC 2014-07-24 13:59:53
Программа кодирования : mkvmerge v6.9.1 ('Blue Panther') 64bit built on Apr 18 2014 18:23:38
Библиотека кодирования : libebml v1.3.0 + libmatroska v1.4.1
Видео
Идентификатор : 1
Формат : AVC
Формат/Информация : Advanced Video Codec
Профиль формата : High@L4.1
Параметр CABAC формата : Да
Параметр ReFrames формата : 4 кадра
Идентификатор кодека : V_MPEG4/ISO/AVC
Продолжительность : 2 ч. 10 м.
Вид битрейта : Переменный
Максимальный битрейт : 35,0 Мбит/сек
Ширина : 1920 пикселей
Высота : 1080 пикселей
Соотношение сторон : 16:9
Режим частоты кадров : Постоянный
Частота кадров : 23,976 кадра/сек
Цветовое пространство : YUV
Субдискретизация насыщенности : 4:2:0
Битовая глубина : 8 бит
Тип развёртки : Прогрессивная
Заголовок : MPEG-4 AVC Video / 32151 kbps / 1080p / 23,976 fps / 16:9 / High Profile 4.1
Язык : English
Default : Да
Forced : Нет
Аудио #1
Идентификатор : 2
Формат : DTS
Формат/Информация : Digital Theater Systems
Режим : 16
Параметр Endianness формата : Big
Идентификатор кодека : A_DTS
Продолжительность : 2 ч. 10 м.
Вид битрейта : Постоянный
Битрейт : 447 Кбит/сек
Каналы : 2 канала
Расположение каналов : Front: L R
Частота : 48,0 КГц
Битовая глубина : 24 бит
Метод сжатия : С потерями
Размер потока : 417 Мбайт (1%)
Заголовок : Дубляж (BD)
Язык : Russian
Default : Да
Forced : Нет
Аудио #2
Идентификатор : 3
Формат : AC-3
Формат/Информация : Audio Coding 3
Расширение режима : CM (complete main)
Параметр Endianness формата : Big
Идентификатор кодека : A_AC3
Продолжительность : 2 ч. 10 м.
Вид битрейта : Постоянный
Битрейт : 192 Кбит/сек
Каналы : 2 канала
Расположение каналов : Front: L R
Частота : 48,0 КГц
Битовая глубина : 16 бит
Метод сжатия : С потерями
Размер потока : 179 Мбайт (1%)
Заголовок : MVO
Язык : Russian
Default : Нет
Forced : Нет
Аудио #3
Идентификатор : 4
Формат : AC-3
Формат/Информация : Audio Coding 3
Расширение режима : CM (complete main)
Параметр Endianness формата : Big
Идентификатор кодека : A_AC3
Продолжительность : 2 ч. 10 м.
Вид битрейта : Постоянный
Битрейт : 192 Кбит/сек
Каналы : 2 канала
Расположение каналов : Front: L R
Частота : 48,0 КГц
Битовая глубина : 16 бит
Метод сжатия : С потерями
Размер потока : 179 Мбайт (1%)
Заголовок : VO - Казаков
Язык : Russian
Default : Нет
Forced : Нет
Аудио #4
Идентификатор : 5
Формат : DTS
Формат/Информация : Digital Theater Systems
Профиль формата : MA / Core
Режим : 16
Параметр Endianness формата : Big
Идентификатор кодека : A_DTS
Продолжительность : 2 ч. 10 м.
Вид битрейта : Переменный
Битрейт : Неизвестно / 1509 Кбит/сек
Каналы : 2 канала
Расположение каналов : Front: L R
Частота : 48,0 КГц
Битовая глубина : 24 бит
Метод сжатия : Без потерь / Lossy
Язык : English
Default : Нет
Forced : Нет
Текст #1
Идентификатор : 6
Формат : UTF-8
Идентификатор кодека : S_TEXT/UTF8
Идентификатор кодека/Информация : UTF-8 Plain Text
Заголовок : BD
Язык : Russian
Default : Нет
Forced : Нет
Текст #2
Идентификатор : 7
Формат : UTF-8
Идентификатор кодека : S_TEXT/UTF8
Идентификатор кодека/Информация : UTF-8 Plain Text
Заголовок : DVD
Язык : Russian
Default : Нет
Forced : Нет
Текст #3
Идентификатор : 8
Формат : UTF-8
Идентификатор кодека : S_TEXT/UTF8
Идентификатор кодека/Информация : UTF-8 Plain Text
Заголовок : Forced
Язык : Russian
Default : Да
Forced : Нет
Текст #4
Идентификатор : 9
Формат : UTF-8
Идентификатор кодека : S_TEXT/UTF8
Идентификатор кодека/Информация : UTF-8 Plain Text
Язык : English
Default : Нет
Forced : Нет
Текст #5
Идентификатор : 10
Формат : UTF-8
Идентификатор кодека : S_TEXT/UTF8
Идентификатор кодека/Информация : UTF-8 Plain Text
Заголовок : SDH
Язык : English
Default : Нет
Forced : Нет
Меню
00:00:00.000 : en:Main Titles
00:01:59.119 : en:The Mystery Brunette
00:08:47.985 : en:Mama
00:18:52.548 : en:The New Payroll Clerk
00:25:58.682 : en:A Drop of Red
00:28:50.228 : en:Instinctual Behavior
00:34:55.551 : en:The Race Track
00:39:58.729 : en:The Rutlands
00:43:56.675 : en:A Robbery at Rutland's
00:48:59.353 : en:The "Real" Marnie
01:00:33.087 : en:The New Mrs. Rutland
01:07:44.810 : en:If You Touch Me...
01:19:32.225 : en:Beneath the Facade
01:30:45.398 : en:That Dream...
01:37:39.895 : en:A Face From the Past
01:45:05.090 : en:The Death of a Friend
01:49:52.711 : en:Take the Money
01:55:55.698 : en:A Visit with Mama
01:59:09.976 : en:Remember, Marnie...
02:09:28.552 : en:Marnie's Choice

Скриншоты


_________________
Показать сообщения:    

Текущее время: Сегодня 18:48

Часовой пояс: GMT



Вы не можете начинать темы
Вы не можете отвечать на сообщения
Вы не можете редактировать свои сообщения
Вы не можете удалять свои сообщения
Вы не можете голосовать в опросах
Вы не можете прикреплять файлы к сообщениям
Вы не можете скачивать файлы