Важное объявление!
У Нас Все раздачи мультитрекерные, при нуле пиров в релизах, можете смело вставать на закачку!
 
Автор Сообщение

HUNTER

Стаж:
4 года 4 месяца
Сообщений:
56772

Репутация: 101

[+] [-]
Вне форума [Профиль] [ЛС]

Марко Поло: Возвращение
Marco Polo: Return to Xanadu
Страна: США, Китай, Словакия
Жанр: Приключения, фэнтези, семейный
Продолжительность: 1:17:21
Год выпуска: 2001
Перевод: Профессиональный (многоголосый закадровый)
Русские субтитры: нет
Режиссёр: Рон Мерк / Ron Merk-Описание: Марко — потомок знаменитого путешественника‑исследователя Марко Поло. Он отправляется в увлекательное приключение, на остров Ханаду, власть на котором, захватил злой волшебник Фу‑Линг, который хочет силой женить на себе красавицу‑принцессу Минг Ю. Фу‑Линг коварен и использует магию времени и пространства, чтобы остановить Марко, но тот вместе с новыми друзьями и при помощи волшебного медальона, остановит колдуна ...-Качество: DVDRip
Формат: AVI
Видео: XviD, 640x480 (4:3), 25 fps, ~1700 kbps
Аудио 1: AC3, 48 kHz, 2 ch, 192 kbps (Rus)
Аудио 2: AC3, 48 kHz, 6 ch, 384 kbps (Eng)
Субтитры: отсутствуют
Релиз: Подробные технические данные
ОбщееПолное имя : E:\MULTFILMS\Marco.Polo.Return.To.Xanadu.2001.DVDRiP.XViD.AC3.BG.ENAUDiO-FrOzOnE\Marco.Polo.Return.to.Xanadu.2001.DVDRip.aviФормат : AVIФормат/Информация : Audio Video InterleaveРазмер файла : 1,26 ГбайтПродолжительность : 1 ч. 17 м.Общий поток : 2340 Кбит/секПрограмма кодирования : VirtualDubMod 1.5.10.2 (build 2542/release)Библиотека кодирования : VirtualDubMod build 2542/release
ВидеоИдентификатор : 0Формат : MPEG-4 VisualПрофиль формата : Advanced Simple@L5Параметр BVOP формата : 1Параметр QPel формата : НетПараметр GMC формата : Без точки переходаПараметр матрицы формата : Default (MPEG)Идентификатор кодека : XVIDИдентификатор кодека/Подсказка : XviDПродолжительность : 1 ч. 17 м.Битрейт : 1749 Кбит/секШирина : 640 пикселейВысота : 480 пикселейСоотношение сторон : 4:3Частота кадров : 25,000 кадров/секЦветовое пространство : YUVСубдискретизация насыщенности : 4:2:0Битовая глубина : 8 битТип развёртки : ПрогрессивнаяМетод сжатия : С потерямиБит/(Пиксели*Кадры) : 0.228Размер потока : 968 Мбайт (75%)Библиотека кодирования : XviD 1.0.1 (UTC 2004-06-05)
Аудио #1Идентификатор : 1Формат : AC-3Формат/Информация : Audio Coding 3Расширение режима : CM (complete main)Параметр Endianness формата : BigИдентификатор кодека : 2000Продолжительность : 1 ч. 17 м.Вид битрейта : ПостоянныйБитрейт : 192 Кбит/секКаналы : 2 каналаРасположение каналов : Front: L RЧастота : 48,0 КГцБитовая глубина : 16 битМетод сжатия : С потерямиРазмер потока : 106 Мбайт (8%)Выравнивание : Разделение по промежуткамПродолжительность промежутка : 40 мс. (1,00 видеокадр)Время предзагрузки промежутка : 500 мс.
Аудио #2Идентификатор : 2Формат : AC-3Формат/Информация : Audio Coding 3Расширение режима : CM (complete main)Параметр Endianness формата : BigИдентификатор кодека : 2000Продолжительность : 1 ч. 17 м.Вид битрейта : ПостоянныйБитрейт : 384 Кбит/секКаналы : 6 каналовРасположение каналов : Front: L C R, Side: L R, LFEЧастота : 48,0 КГцБитовая глубина : 16 битМетод сжатия : С потерямиРазмер потока : 212 Мбайт (16%)Выравнивание : Разделение по промежуткамПродолжительность промежутка : 40 мс. (1,00 видеокадр)Время предзагрузки промежутка : 500 мс.
Скриншоты

_________________
Показать сообщения:    

Текущее время: Сегодня 13:37

Часовой пояс: GMT



Вы не можете начинать темы
Вы не можете отвечать на сообщения
Вы не можете редактировать свои сообщения
Вы не можете удалять свои сообщения
Вы не можете голосовать в опросах
Вы не можете прикреплять файлы к сообщениям
Вы не можете скачивать файлы