Важное объявление!
У Нас Все раздачи мультитрекерные, при нуле пиров в релизах, можете смело вставать на закачку!
 
Автор Сообщение

HUNTER

Стаж:
4 года 4 месяца
Сообщений:
56848

Репутация: 101

[+] [-]
Вне форума [Профиль] [ЛС]

Мария-Антуанетта – королева Франции / Marie-Antoinette reine de France-
Год выпуска: 1956
Страна: Франция, Италия
Жанр: исторический, драма
Продолжительность: 01:59:54
Перевод: Субтитры
Оригинальная аудиодорожка: Французская
Cубтитры: Русские (Антон Каптелов), французские, английские-Режиссер: Жан Деланнуа / Jean Delannoy
В ролях: Мишель Морган, Ричард Тодд, Жак Морель, Жанна Буатель, Эме Кларион, Мадлен Руссе, Ги Трежан, Жоржетт Анис, Марсель Арнольд, Эдмон Бошан, Даниэль Секкальди, Жак Дюфило, Мишель Пикколи-Описание:
Действие фильма происходит в 1789-1793 годах. Блистательная в своём великолепии королева, но уязвимая и чувствительная в частной жизни Мария-Антуанетта разрывается между долгом перед мужем, королём Франции Людовиком XVI, и любовью к графу Ферсену.-За субтитры спасибо dimmm2v.
| IMDb | Sample-Качество: BDRip 720p (PHOBOS)
Контейнер: MKV
Видео: x264, 992x720 (1.37:1), 24 fps, 4451 kbps
Аудио: Французский DTS 2.0, 48 kHz, 768 kbps
Формат субтитров: softsub (SRT)

Скриншоты


MI

General
Unique ID : 202356725629604506594020408822163645827 (0x983C7CDC1FA935E6BB3C62E8C5A12583)
Complete name : Marie.Antoinette.Queen.of.France.1956.720p.BluRay.x264-PHOBOS.mkv
Format : Matroska
Format version : Version 2
File size : 4.37 GiB
Duration : 1h 59mn
Overall bit rate : 5 221 Kbps
Movie name : Мария-Антуанетта – королева Франции (1956) – RuTracker
Encoded date : UTC 2015-11-14 10:43:20
Writing application : mkvmerge v8.3.0 ('Over the Horizon') 64bit
Writing library : libebml v1.3.1 + libmatroska v1.4.2
Attachements : cover.jpg
Video
ID : 1
Format : AVC
Format/Info : Advanced Video Codec
Format profile : High@L4.1
Format settings, CABAC : Yes
Format settings, ReFrames : 11 frames
Codec ID : V_MPEG4/ISO/AVC
Duration : 1h 59mn
Bit rate : 4 451 Kbps
Width : 992 pixels
Height : 720 pixels
Display aspect ratio : 1.378
Frame rate mode : Constant
Frame rate : 24.000 fps
Color space : YUV
Chroma subsampling : 4:2:0
Bit depth : 8 bits
Scan type : Progressive
Bits/(Pixel*Frame) : 0.260
Stream size : 3.64 GiB (83%)
Title : Marie.Antoinette.Queen.of.France.1956.720p.BluRay.x264-PHOBOS
Writing library : x264 core 148 r2597M e86f3a1
Encoding settings : cabac=1 / ref=11 / deblock=1:0:0 / analyse=0x3:0x133 / me=umh / subme=10 / psy=1 / psy_rd=1.00:0.00 / mixed_ref=1 / me_range=24 / chroma_me=1 / trellis=2 / 8x8dct=1 / cqm=0 / deadzone=21,11 / fast_pskip=1 / chroma_qp_offset=-2 / threads=12 / lookahead_threads=2 / sliced_threads=0 / nr=0 / decimate=1 / interlaced=0 / bluray_compat=0 / constrained_intra=0 / bframes=8 / b_pyramid=2 / b_adapt=2 / b_bias=0 / direct=3 / weightb=1 / open_gop=0 / weightp=2 / keyint=250 / keyint_min=24 / scenecut=40 / intra_refresh=0 / rc_lookahead=60 / rc=2pass / mbtree=1 / bitrate=4451 / ratetol=1.0 / qcomp=0.60 / qpmin=0 / qpmax=69 / qpstep=4 / cplxblur=20.0 / qblur=0.5 / ip_ratio=1.40 / aq=1:1.00
Language : French
Default : Yes
Forced : No
Audio
ID : 2
Format : DTS
Format/Info : Digital Theater Systems
Mode : 16
Format settings, Endianness : Big
Codec ID : A_DTS
Duration : 1h 59mn
Bit rate mode : Constant
Bit rate : 768 Kbps
Channel(s) : 2 channels
Channel positions : Front: L R
Sampling rate : 48.0 KHz
Bit depth : 24 bits
Compression mode : Lossy
Stream size : 659 MiB (15%)
Language : French
Default : Yes
Forced : No
Text #1
ID : 3
Format : UTF-8
Codec ID : S_TEXT/UTF8
Codec ID/Info : UTF-8 Plain Text
Title : Антон Каптелов
Language : Russian
Default : Yes
Forced : No
Text #2
ID : 4
Format : UTF-8
Codec ID : S_TEXT/UTF8
Codec ID/Info : UTF-8 Plain Text
Language : English
Default : No
Forced : No
Text #3
ID : 5
Format : UTF-8
Codec ID : S_TEXT/UTF8
Codec ID/Info : UTF-8 Plain Text
Title : SDH
Language : French
Default : No
Forced : No
Menu
00:00:00.000 : en:00:00:00.000
00:11:15.375 : en:00:11:15.375
00:19:40.375 : en:00:19:40.375
00:27:50.167 : en:00:27:50.167
00:38:54.708 : en:00:38:54.708
00:48:29.625 : en:00:48:29.625
00:59:37.250 : en:00:59:37.250
01:09:07.292 : en:01:09:07.292
01:20:14.042 : en:01:20:14.042
01:29:35.125 : en:01:29:35.125
01:39:02.583 : en:01:39:02.583
01:50:11.125 : en:01:50:11.125

_________________
Показать сообщения:    

Текущее время: Сегодня 07:23

Часовой пояс: GMT



Вы не можете начинать темы
Вы не можете отвечать на сообщения
Вы не можете редактировать свои сообщения
Вы не можете удалять свои сообщения
Вы не можете голосовать в опросах
Вы не можете прикреплять файлы к сообщениям
Вы не можете скачивать файлы
Наши партнеры: интернет магазин Ивановского трикотажа textilla.ru