Важное объявление!
У Нас Все раздачи мультитрекерные, при нуле пиров в релизах, можете смело вставать на закачку!
 
Автор Сообщение

HUNTER

Стаж:
4 года 4 месяца
Сообщений:
56719

Репутация: 101

[+] [-]
Вне форума [Профиль] [ЛС]

Маньчжурский кандидат / The Manchurian Candidate
Страна: США
Жанр: триллер, драма, детектив, фантастика
Год выпуска: 2004
Продолжительность: 02:09:52
Перевод: Профессиональный (двухголосый закадровый) Tycoon
Перевод 2: Профессиональный (двухголосый закадровый)
Перевод 3: Авторский (одноголосый закадровый) Ю.Живов
Cубтитры: русские,английские
Оригинальная аудиодорожка: английский
Режиссер: Джонатан Демме / Jonathan Demme
В ролях: Дензел Вашингтон, Мэрил Стрип, Лив Шрайбер, Джеффри Райт, Джон Войт, Кимберли Элиз, Бруно Ганц, Саймон МакБерни, Пабло Шрайбер, Энтони Маки
Описание: Во время операции «Буря в пустыне» сержант Рэймонд Шоу совершил подвиг, спас своих братьев по оружию, попавших в засаду, пока командир отряда Бен Марко был без сознания. Прошло несколько лет. Шоу, подбадриваемый матерью-сенатором, рвется в вице-президенты, а у Бена начинаются странные видения. Он уже не уверен, что тогда в Кувейте все было именно так, как он помнит. Поиски правды могут стоить Марко жизни.
Кинопоиск|Imdb|Сэмпл
Тип релиза: BDRip 1080p
Контейнер: MKV
Видео: MPEG4 Video (H264) 1920x1080 23.976fps 17.2 Mbps
Аудио: Русский AC-3 6 ch 48.0 KHz 448 Kbps
Аудио 2: Русский AC-3 6 ch 48.0 KHz 448 Kbps
Аудио 3: Русский DTS 6 ch 48.0 KHz 1 509 Kbps
Аудио 4: English DTS 6ch 48.0 KHz 1 509 Kbps
Аудио 5: English AC-3 2 ch 48.0 Khz 192 Kbps (Commentary)
Формат субтитров: softsub (SRT)

MediaInfo

General
Unique ID : 193774360760088542901445711196361279881 (0x91C7959A348969079A2E4E684D3B4989)
Complete name : D:\The.Manchurian.Candidate.2004.BDRip.1080p.mkv
Format : Matroska
Format version : Version 4 / Version 2
File size : 19.3 GiB
Duration : 2h 9mn
Overall bit rate : 21.3 Mbps
Encoded date : UTC 2014-09-15 12:07:14
Writing application : mkvmerge v6.9.1 ('Blue Panther') 64bit built on Apr 18 2014 18:23:38
Writing library : libebml v1.3.0 + libmatroska v1.4.1
DURATION : 02:09:51.968000000
NUMBER_OF_FRAMES : 243499
NUMBER_OF_BYTES : 187007232
_STATISTICS_WRITING_APP : mkvmerge v7.1.0 ('Good Love') 64bit built on Jul 27 2014 13:06:55
_STATISTICS_WRITING_DATE_UTC : 2014-09-13 07:03:01
_STATISTICS_TAGS : BPS DURATION NUMBER_OF_FRAMES NUMBER_OF_BYTES
Video
ID : 1
Format : AVC
Format/Info : Advanced Video Codec
Format profile : High@L4.1
Format settings, CABAC : Yes
Format settings, ReFrames : 4 frames
Codec ID : V_MPEG4/ISO/AVC
Duration : 2h 9mn
Bit rate : 17.2 Mbps
Width : 1 920 pixels
Height : 1 080 pixels
Display aspect ratio : 16:9
Frame rate mode : Constant
Frame rate : 23.976 fps
Color space : YUV
Chroma subsampling : 4:2:0
Bit depth : 8 bits
Scan type : Progressive
Bits/(Pixel*Frame) : 0.346
Stream size : 15.2 GiB (79%)
Title : MPEG-4 x264@High Profile L4.1, 24/1.001 fps @ 17100 kbps
Writing library : x264 core 142 r2453 ea0ca51
Encoding settings : cabac=1 / ref=4 / deblock=1:-3:-3 / analyse=0x3:0x133 / me=umh / subme=11 / psy=1 / psy_rd=1.00:0.00 / mixed_ref=1 / me_range=32 / chroma_me=1 / trellis=2 / 8x8dct=1 / cqm=0 / deadzone=21,11 / fast_pskip=0 / chroma_qp_offset=-2 / threads=24 / lookahead_threads=2 / sliced_threads=0 / nr=0 / decimate=0 / interlaced=0 / bluray_compat=0 / constrained_intra=0 / bframes=6 / b_pyramid=2 / b_adapt=2 / b_bias=0 / direct=3 / weightb=1 / open_gop=0 / weightp=2 / keyint=240 / keyint_min=23 / scenecut=40 / intra_refresh=0 / rc_lookahead=60 / rc=2pass / mbtree=1 / bitrate=17200 / ratetol=1.0 / qcomp=0.60 / qpmin=0 / qpmax=69 / qpstep=4 / cplxblur=20.0 / qblur=0.5 / vbv_maxrate=45000 / vbv_bufsize=45000 / nal_hrd=none / filler=0 / ip_ratio=1.40 / aq=1:0.60
Language : English
Default : Yes
Forced : No
DURATION : 02:09:51.951000000
NUMBER_OF_FRAMES : 186820
NUMBER_OF_BYTES : 16742395079
_STATISTICS_WRITING_APP : mkvmerge v7.1.0 ('Good Love') 64bit built on Jul 27 2014 13:06:55
_STATISTICS_WRITING_DATE_UTC : 2014-09-13 07:03:01
_STATISTICS_TAGS : BPS DURATION NUMBER_OF_FRAMES NUMBER_OF_BYTES
Audio #1
ID : 2
Format : AC-3
Format/Info : Audio Coding 3
Mode extension : CM (complete main)
Format settings, Endianness : Big
Codec ID : A_AC3
Duration : 2h 9mn
Bit rate mode : Constant
Bit rate : 448 Kbps
Channel count : 6 channels
Channel positions : Front: L C R, Side: L R, LFE
Sampling rate : 48.0 KHz
Bit depth : 16 bits
Compression mode : Lossy
Stream size : 416 MiB (2%)
Title : DVO Tycoon
Language : Russian
Default : Yes
Forced : No
Audio #2
ID : 3
Format : AC-3
Format/Info : Audio Coding 3
Mode extension : CM (complete main)
Format settings, Endianness : Big
Codec ID : A_AC3
Duration : 2h 9mn
Bit rate mode : Constant
Bit rate : 448 Kbps
Channel count : 6 channels
Channel positions : Front: L C R, Side: L R, LFE
Sampling rate : 48.0 KHz
Bit depth : 16 bits
Compression mode : Lossy
Stream size : 416 MiB (2%)
Title : DVO
Language : Russian
Default : No
Forced : No
Audio #3
ID : 4
Format : DTS
Format/Info : Digital Theater Systems
Mode : 16
Format settings, Endianness : Big
Codec ID : A_DTS
Duration : 2h 9mn
Bit rate mode : Constant
Bit rate : 1 509 Kbps
Channel count : 6 channels
Channel positions : Front: L C R, Side: L R, LFE
Sampling rate : 48.0 KHz
Bit depth : 24 bits
Compression mode : Lossy
Stream size : 1.37 GiB (7%)
Title : AVO Ю.Живов
Language : Russian
Default : No
Forced : No
Audio #4
ID : 5
Format : DTS
Format/Info : Digital Theater Systems
Mode : 16
Format settings, Endianness : Big
Codec ID : A_DTS
Duration : 2h 9mn
Bit rate mode : Constant
Bit rate : 1 509 Kbps
Channel count : 6 channels
Channel positions : Front: L C R, Side: L R, LFE
Sampling rate : 48.0 KHz
Bit depth : 24 bits
Compression mode : Lossy
Stream size : 1.37 GiB (7%)
Title : English DTS Audio 5.1 @ 1509 kbps
Language : English
Default : No
Forced : No
Audio #5
ID : 6
Format : AC-3
Format/Info : Audio Coding 3
Format profile : Dolby Digital
Mode extension : CM (complete main)
Format settings, Endianness : Big
Codec ID : A_AC3
Duration : 2h 9mn
Bit rate mode : Constant
Bit rate : 192 Kbps
Channel count : 2 channels
Channel positions : Front: L R
Sampling rate : 48.0 KHz
Bit depth : 16 bits
Compression mode : Lossy
Stream size : 178 MiB (1%)
Title : English Dolby Digital Audio 2.0 @ 192 kbps Commentary
Language : English
Default : No
Forced : No
Text #1
ID : 7
Format : UTF-8
Codec ID : S_TEXT/UTF8
Codec ID/Info : UTF-8 Plain Text
Language : Russian
Default : No
Forced : No
Text #2
ID : 8
Format : UTF-8
Codec ID : S_TEXT/UTF8
Codec ID/Info : UTF-8 Plain Text
Language : English
Default : No
Forced : No
Menu
00:00:00.000 : en:00:00:00.000
00:06:37.272 : en:00:06:37.272
00:11:46.581 : en:00:11:46.581
00:17:08.486 : en:00:17:08.486
00:25:20.185 : en:00:25:20.185
00:32:55.265 : en:00:32:55.265
00:41:30.530 : en:00:41:30.530
00:47:57.374 : en:00:47:57.374
01:01:52.334 : en:01:01:52.334
01:07:26.000 : en:01:07:26.000
01:13:20.855 : en:01:13:20.855
01:24:22.599 : en:01:24:22.599
01:34:50.476 : en:01:34:50.476
01:39:36.095 : en:01:39:36.095
01:46:23.419 : en:01:46:23.419
02:00:52.620 : en:02:00:52.620
02:03:31.404 : en:02:03:31.404

Скриншоты


_________________
Показать сообщения:    

Текущее время: Сегодня 20:31

Часовой пояс: GMT



Вы не можете начинать темы
Вы не можете отвечать на сообщения
Вы не можете редактировать свои сообщения
Вы не можете удалять свои сообщения
Вы не можете голосовать в опросах
Вы не можете прикреплять файлы к сообщениям
Вы не можете скачивать файлы