Важное объявление!
У Нас Все раздачи мультитрекерные, при нуле пиров в релизах, можете смело вставать на закачку!
 
Автор Сообщение

HUNTER

Стаж:
4 года 4 месяца
Сообщений:
56755

Репутация: 101

[+] [-]
Вне форума [Профиль] [ЛС]

Манекен в движении / Mannequin: On the Move
Страна: США
Жанр: фэнтези, комедия
Год выпуска: 1991
Продолжительность: 01:35:04
Перевод: Одноголосый закадровый
Cубтитры: английские
Оригинальная аудиодорожка: английский
Режиссер: Стюарт Рэффил / Stewart Raffill
В ролях: Кристи Суонсон, Уильям Рэгсдэйл, Мешах Тэйлор, Терри Кайзер, Стюарт Пэнкин, Синтия Харрис, Эндрю Хилл Ньюман, Джули Формен, Джон Эдмондсон, Фил Лателла...
Описание: В первой серии «Манекена» была расколдована египетская царица. Во второй — немецкая крестьянка, которая ожила, когда в Филадельфии проводилась выставка, представляющая одну из германских земель (а именно, Хауптман-Кениг). Ее полюбил служащий выставки и начал борьбу за даму своего сердца со злым колдуном…
Доп. информация: Звук с раздачи Jkudzadp.Синхронизация звука - Dreven.
Сэмпл: http://sendfile.su/1220584
Тип релиза: BDRip 720p Исходник Blu-Ray rarbg
Контейнер: MKV
Видео: 1280x696 (16:9), 23.976 fps, AVC, ~12.8 Mbps, 0.599 bits/pixel
Аудио 1: Russian, 48.0 KHz, AC3, 2 ch, 192 Kbps
Аудио 2: English, 48.0 KHz, DTS, 2 ch, 1510 Kbps

Log

avs4x264.exe: -L x264_64.exe --pass 2 --bitrate 12800 --preset medium --ref 9 --deblock -1:-1 --merange 32 --bframes 10 --direct auto --b-adapt 2 --trellis 2 --no-fast-pskip --psy-rd 1.00:0.10 --partitions all --subme 10 --me umh --rc-lookahead 50 --sar 1:1
raw [info]: 1280x696p 1:1 @ 24000/1001 fps (cfr)
x264 [info]: using SAR=1/1
x264 [info]: using cpu capabilities: MMX2 SSE2Fast LZCNT
x264 [info]: profile High, level 4.1
x264 [info]: frame I:1008 Avg QP:16.28 size:200308
x264 [info]: frame P:28723 Avg QP:18.72 size: 93132
x264 [info]: frame B:107022 Avg QP:20.98 size: 58349
x264 [info]: consecutive B-frames: 1.7% 2.4% 8.9% 14.8% 15.7% 46.3% 4.8% 1.8% 1.5% 1.2% 0.8%
x264 [info]: mb I I16..4: 11.5% 69.7% 18.8%
x264 [info]: mb P I16..4: 0.5% 36.5% 2.5% P16..4: 22.9% 22.2% 11.8% 0.6% 0.1% skip: 2.9%
x264 [info]: mb B I16..4: 0.1% 11.6% 0.3% B16..8: 37.6% 18.5% 6.4% direct:15.9% skip: 9.7% L0:44.3% L1:38.0% BI:17.7%
x264 [info]: 8x8 transform intra:94.0% inter:69.3%
x264 [info]: direct mvs spatial:97.5% temporal:2.5%
x264 [info]: coded y,uvDC,uvAC intra: 98.8% 97.5% 89.1% inter: 71.8% 71.6% 33.8%
x264 [info]: i16 v,h,dc,p: 31% 7% 23% 39%
x264 [info]: i8 v,h,dc,ddl,ddr,vr,hd,vl,hu: 12% 7% 11% 10% 13% 13% 11% 12% 12%
x264 [info]: i4 v,h,dc,ddl,ddr,vr,hd,vl,hu: 13% 7% 3% 9% 15% 15% 13% 12% 12%
x264 [info]: i8c dc,h,v,p: 53% 14% 15% 18%
x264 [info]: Weighted P-Frames: Y:6.1% UV:2.7%
x264 [info]: ref P L0: 35.2% 12.3% 20.8% 8.1% 7.7% 4.8% 4.9% 2.7% 3.0% 0.4% 0.0%
x264 [info]: ref B L0: 68.6% 13.9% 6.7% 3.9% 2.8% 2.4% 1.2% 0.4%
x264 [info]: ref B L1: 91.6% 8.4%
x264 [info]: kb/s:12793.85
x264 [total]: encoded 136753 frames, 3.23 fps, 12793.85 kb/s

MediaInfo

General
Unique ID : 189834435251471473118931664979868234102 (0x8ED0C846F41A3E4DAC7C491DDB6FB176)
Complete name : C:\Mannequin - On the Move. BDRip 720p.mkv
Format : Matroska
Format version : Version 4 / Version 2
File size : 9.63 GiB
Duration : 1h 35mn
Overall bit rate : 14.5 Mbps
Encoded date : UTC 2016-04-01 16:49:23
Writing application : mkvmerge v9.0.1 ('Obstacles') 64bit
Writing library : libebml v1.3.3 + libmatroska v1.4.4
DURATION : 01:34:12.340000000
NUMBER_OF_FRAMES : 1391
NUMBER_OF_BYTES : 49964
_STATISTICS_WRITING_APP : mkvmerge v9.0.1 ('Obstacles') 64bit
_STATISTICS_WRITING_DATE_UT : 2016-04-01 16:49:23
_STATISTICS_TAGS : BPS DURATION NUMBER_OF_FRAMES NUMBER_OF_BYTES
Video
ID : 1
Format : AVC
Format/Info : Advanced Video Codec
Format profile : High@L4.1
Format settings, CABAC : Yes
Format settings, ReFrames : 9 frames
Codec ID : V_MPEG4/ISO/AVC
Duration : 1h 35mn
Bit rate : 12.8 Mbps
Width : 1 280 pixels
Height : 696 pixels
Display aspect ratio : 1.85:1
Frame rate mode : Constant
Frame rate : 23.976 fps
Color space : YUV
Chroma subsampling : 4:2:0
Bit depth : 8 bits
Scan type : Progressive
Bits/(Pixel*Frame) : 0.599
Stream size : 8.31 GiB (86%)
Writing library : x264 core 148 r2665 a01e339
Encoding settings : cabac=1 / ref=9 / deblock=1:-1:-1 / analyse=0x3:0x133 / me=umh / subme=10 / psy=1 / psy_rd=1.00:0.10 / mixed_ref=1 / me_range=32 / chroma_me=1 / trellis=2 / 8x8dct=1 / cqm=0 / deadzone=21,11 / fast_pskip=0 / chroma_qp_offset=-3 / threads=6 / lookahead_threads=1 / sliced_threads=0 / nr=0 / decimate=1 / interlaced=0 / bluray_compat=0 / constrained_intra=0 / bframes=10 / b_pyramid=2 / b_adapt=2 / b_bias=0 / direct=3 / weightb=1 / open_gop=0 / weightp=2 / keyint=250 / keyint_min=23 / scenecut=40 / intra_refresh=0 / rc_lookahead=50 / rc=2pass / mbtree=1 / bitrate=12800 / ratetol=1.0 / qcomp=0.60 / qpmin=0 / qpmax=69 / qpstep=4 / cplxblur=20.0 / qblur=0.5 / ip_ratio=1.40 / aq=1:1.00
Language : English
Default : Yes
Forced : No
Audio #1
ID : 2
Format : AC-3
Format/Info : Audio Coding 3
Mode extension : CM (complete main)
Format settings, Endianness : Big
Codec ID : A_AC3
Duration : 1h 35mn
Bit rate mode : Constant
Bit rate : 192 Kbps
Channel(s) : 2 channels
Channel positions : Front: L R
Sampling rate : 48.0 KHz
Compression mode : Lossy
Stream size : 131 MiB (1%)
Language : Russian
Default : Yes
Forced : No
Audio #2
ID : 3
Format : DTS
Format/Info : Digital Theater Systems
Mode : 16
Format settings, Endianness : Big
Codec ID : A_DTS
Duration : 1h 35mn
Bit rate mode : Constant
Bit rate : 1 509 Kbps
Channel(s) : 2 channels
Channel positions : Front: L R
Sampling rate : 48.0 KHz
Bit depth : 24 bits
Compression mode : Lossy
Stream size : 1.00 GiB (10%)
Language : English
Default : No
Forced : No
Text
ID : 4
Format : UTF-8
Codec ID : S_TEXT/UTF8
Codec ID/Info : UTF-8 Plain Text
Language : English
Default : No
Forced : No

Скриншоты


_________________
Показать сообщения:    

Текущее время: Сегодня 17:56

Часовой пояс: GMT



Вы не можете начинать темы
Вы не можете отвечать на сообщения
Вы не можете редактировать свои сообщения
Вы не можете удалять свои сообщения
Вы не можете голосовать в опросах
Вы не можете прикреплять файлы к сообщениям
Вы не можете скачивать файлы