Важное объявление!
У Нас Все раздачи мультитрекерные, при нуле пиров в релизах, можете смело вставать на закачку!
 
Автор Сообщение

HUNTER

Стаж:
4 года 4 месяца
Сообщений:
56719

Репутация: 101

[+] [-]
Вне форума [Профиль] [ЛС]

Мангака и все-все-все-
Страна: Япония
Год выпуска: 2014 г.
Жанр: комедия, романтика
Тип: TV
Продолжительность: >12 эп., 12 мин.
Режиссер: Фурута Такэси
Студия: ZEXCS-Перевод:
Werebeast-World-art || MAL-Описание: История рассказывает о тяжёлых буднях незадачливого мангаки, который сочиняет и рисует полухентайную мангу. Ему помогает чем может его ассистентка - фоны красит, ретуширует и зачастую выполняет... более экзотические просьбы. А вот в остальном жизнь не сахар. Редактор-тян постоянно прессует беднягу и угрожает физической расправой, когда близятся сроки сдачи главы. Затем в коллектив вливается горячая поклонница манги нашего героя, которую взяли на подработку исключительно за красивые глаза (минус к зарплате, а толку — ноль). Ну и наконец происходит судьбоносная встреча с гениальной лолей, которая будет делать мангу из тех порнокомиксов, что ваяет главный герой. Также в ролях: сестричка ассистентки; главред журнала — тролль-90-левел-тян; другие мангаки и их редакторы, которые всё равно не попадут в экранизацию; юное протеже нашего героя (см. пред. пункт); а также его исключительно талантливый кот, порой подменяющий своего хозяина, коли дедлайн близко.
Искренне надеемся, что бедный мангака выживет в этом кошмаре и сумеет захомутать хоть какую-нибудь няшку среди свежеобразованного (якобы) гарема.-Качество: HDTVRip
Тип релиза: Без хардсаба
Формат видео: MP4
Наличие линковки: Нет
Релиз/Автор рипа: Leopard-Raws
Видео: AVC, 1280x720, 1789kbps, 23,976fps, 8bits
Аудио JAP: AAC, 192kbps, 48.0Hz, 2ch
Субтитры RUS: ass, внешние-

Подробные тех. данные

ОбщееФормат : MPEG-4Профиль формата : Base MediaИдентификатор кодека : isomРазмер файла : 163 МбайтПродолжительность : 11 м.Режим общего битрейта : ПеременныйОбщий поток : 1984 Кбит/секДата кодирования : UTC 2014-04-07 17:56:37Дата пометки : UTC 2014-04-07 17:56:37
ВидеоИдентификатор : 1Формат : AVCФормат/Информация : Advanced Video CodecПрофиль формата : High@L4.1Параметр CABAC формата : ДаПараметр ReFrames формата : 4 кадраИдентификатор кодека : avc1Идентификатор кодека/Информация : Advanced Video CodingПродолжительность : 11 м.Битрейт : 1789 Кбит/секМаксимальный битрейт : 10,1 Мбит/секШирина : 1280 пикселейВысота : 720 пикселейСоотношение сторон : 16:9Режим частоты кадров : ПостоянныйЧастота кадров : 23,976 кадра/секЦветовое пространство : YUVСубдискретизация насыщенности : 4:2:0Битовая глубина : 8 битТип развёртки : ПрогрессивнаяБит/(Пиксели*Кадры) : 0.081Размер потока : 147 Мбайт (90%)Заголовок : 264:fps=23.976@GPAC0.5.1-DEV-rev4283Библиотека кодирования : x264 core 129 r2245+729M 1a52e03Настройки программы : cabac=1 / ref=4 / deblock=1:1:-1 / analyse=0x3:0x113 / me=umh / subme=9 / psy=1 / fade_compensate=0.00 / psy_rd=1.00:0.00 / mixed_ref=1 / me_range=24 / chroma_me=1 / trellis=2 / 8x8dct=1 / cqm=0 / deadzone=21,11 / fast_pskip=1 / chroma_qp_offset=-2 / threads=8 / lookahead_threads=1 / sliced_threads=0 / nr=0 / decimate=1 / interlaced=0 / bluray_compat=0 / constrained_intra=0 / fgo=0 / bframes=9 / b_pyramid=2 / b_adapt=2 / b_bias=0 / direct=1 / weightb=1 / open_gop=0 / weightp=2 / keyint=240 / keyint_min=24 / scenecut=40 / intra_refresh=0 / rc=crf / mbtree=0 / crf=19.0 / qcomp=0.72 / qpmin=0 / qpmax=69 / qpstep=4 / ip_ratio=1.40 / pb_ratio=1.30 / aq=1:0.85Дата кодирования : UTC 2014-04-07 17:56:37Дата пометки : UTC 2014-04-07 17:56:38Основные цвета : BT.709Характеристики трансфера : BT.709Коэффициенты матрицы : BT.709
АудиоИдентификатор : 2Формат : AACФормат/Информация : Advanced Audio CodecПрофиль формата : LCИдентификатор кодека : 40Продолжительность : 11 м.Вид битрейта : ПеременныйБитрейт : 192 Кбит/секМаксимальный битрейт : 226 Кбит/секКаналы : 2 каналаРасположение каналов : Front: L RЧастота : 48,0 КГцМетод сжатия : С потерямиРазмер потока : 15,7 Мбайт (10%)Язык : JapaneseДата кодирования : UTC 2014-04-07 17:13:08Дата пометки : UTC 2014-04-07 17:56:38

Список эпизодов

Серия 01: "Perfecting Breasts! / Dream Job / Panty Wars / Otosuna Mihari`s Day Off"

Скриншоты

Тайминг субтитров правился примерно на -800 мс. При обнаружении сбивки в сабе - сообщите, пожалуйста, в ПМ.

_________________
Показать сообщения:    

Текущее время: Сегодня 03:03

Часовой пояс: GMT



Вы не можете начинать темы
Вы не можете отвечать на сообщения
Вы не можете редактировать свои сообщения
Вы не можете удалять свои сообщения
Вы не можете голосовать в опросах
Вы не можете прикреплять файлы к сообщениям
Вы не можете скачивать файлы