Важное объявление!
У Нас Все раздачи мультитрекерные, при нуле пиров в релизах, можете смело вставать на закачку!
 
Автор Сообщение

palych74

Стаж:
4 года 4 месяца
Сообщений:
80

Репутация: 21

[+] [-]
Вне форума [Профиль] [ЛС]

Мамочка моя
Год выпуска: 2011
Производство: "УПС" по заказу телеканала "Россия-1"
Жанр: мелодрама
Продолжительность: 00:44:44
Субтитры: Нет--Режиссёр: Алина Чеботарева--В ролях: Анна Горшкова, Анна Пескова, Дмитрий Орлов (III), Пётр Красилов, Кирилл Рубцов, Михаил Химичев, Екатерина Кистень, Андрей Фединчик, Яна Глущенко, Фёдор Гуринец, Артур Дворянкин, Дария Боцманова, Дарья Егоркина, Анна Сырбу, Саак Дурян, Ада Роговцева, Алла Мартынюк--Описание: Елена мечтала выйти замуж за аспиранта Костю, а стала женой Петра — не по своей воле! Родилась дочь, но Елена так и не смогла полюбить жестокого деревенского мужика. Однажды муж избил ее до полусмерти. Истекая кровью, женщина бежала из дома. Так начались скитания Елены. Много испытаний уготовила ей судьба: встречу с цыганами, жизнь в монастыре, работу гувернанткой в доме криминального авторитета. Она была готова перенести любые трудности, лишь бы забрать у мужа-изувера любимую дочь. А потом пришло известие, что Петр и ее малышка погибли в горящем доме...--Сэмпл: http://multi-up.com/761024--Качество: SATRip
Формат: AVI
Видео кодек: DivX
Аудио кодек: MP3
Видео: MPEG4, DivX 5, 720x400 (16/9), 25.000 fps, 1 489 Kbps (0.207 bit/pixel)
Аудио: MP3, 48.0 KHz, 2 ch, 128 Kbps, CBR

Реклама отсутствует!

MI

General
Complete name : I:\ЗАКАЧКИ\Мамочка моя 2011 SATRip\Mamochka_moja_01of04_2012_SATRip.avi
Format : AVI
Format/Info : Audio Video Interleave
File size : 521 MiB
Duration : 44mn 43s
Overall bit rate : 1 630 Kbps
Writing library : Boilsoft AVI tool build 1/release
Video
ID : 0
Format : MPEG-4 Visual
Format profile : Simple@L3
Format settings, BVOP : 1
Format settings, QPel : No
Format settings, GMC : No warppoints
Format settings, Matrix : Default (H.263)
Codec ID : DX50
Codec ID/Hint : DivX 5
Duration : 44mn 43s
Bit rate : 1 489 Kbps
Width : 720 pixels
Height : 400 pixels
Display aspect ratio : 16:9
Frame rate : 25.000 fps
Color space : YUV
Chroma subsampling : 4:2:0
Bit depth : 8 bits
Scan type : Progressive
Compression mode : Lossy
Bits/(Pixel*Frame) : 0.207
Stream size : 476 MiB (91%)
Writing library : XviD 1.2.1 (UTC 2008-12-04)
Audio
ID : 1
Format : MPEG Audio
Format version : Version 1
Format profile : Layer 3
Mode : Joint stereo
Mode extension : MS Stereo
Codec ID : 55
Codec ID/Hint : MP3
Duration : 44mn 43s
Bit rate mode : Constant
Bit rate : 128 Kbps
Channel(s) : 2 channels
Sampling rate : 48.0 KHz
Compression mode : Lossy
Stream size : 40.9 MiB (8%)
Alignment : Aligned on interleaves
Interleave, duration : 24 ms (0.60 video frame)
Interleave, preload duration : 504 ms
Показать сообщения:    

Текущее время: Сегодня 13:55

Часовой пояс: GMT



Вы не можете начинать темы
Вы не можете отвечать на сообщения
Вы не можете редактировать свои сообщения
Вы не можете удалять свои сообщения
Вы не можете голосовать в опросах
Вы не можете прикреплять файлы к сообщениям
Вы не можете скачивать файлы