Важное объявление!
У Нас Все раздачи мультитрекерные, при нуле пиров в релизах, можете смело вставать на закачку!
 
Автор Сообщение

HUNTER

Стаж:
4 года 4 месяца
Сообщений:
56822

Репутация: 101

[+] [-]
Вне форума [Профиль] [ЛС]

Мальчик с пальчик и дюймовочка
Tom Thumb Meets Thumbelina
Страна: США (GoldenFilms)
Жанр: мультфильм, семейный
Продолжительность: 00:52:19
Год выпуска: 1996
Перевод: Профессиональный (дублированный)
Русские субтитры: нет
Режиссёр: Диана Эшкенази / Diane Eskenazi-Описание: Управляя королевством Великий Луг Дюймовочка неустанно пытается поддерживать порядок среди своих подданных. А неподалеку в замке живет Мальчик-с-пальчик, любимый рыцарь могущественного короля Ричарда. Злобный сын короля Медвин задумывает уничтожить Великий Луг и начинает осуществлять свой коварный план. На помощь Дюймовочке приходит Мальчик-с-пальчик, который помогает ей противостоять злодею и сохранить королевство.-Качество: DVB
Формат: TS
Видео: AVC, 720x576, 25.000 fps, ~3200 Kbps
Аудио 1: MPEG-1 Audio layer 2, 48.0 KHz, 2 ch, 96 Kbps (Русский)
Аудио 2: MPEG-1 Audio layer 2, 48.0 KHz, 2 ch, 96 Kbps (English)
Субтитры: отсутствуют
Релиз: Благодарность xfiles за запись мультфильма.

Подробные технические данные

ОбщееИдентификатор : 1 (0x1)Полное имя : E:\MULTFILMS\Tom Thumb Meets Thumbelina 1996 GoldenFilms.tsФормат : MPEG-TSРазмер файла : 1,30 ГбайтПродолжительность : 52 м.Режим общего битрейта : ПеременныйОбщий поток : 3566 Кбит/секМаксимальный общий битрейт : 35,5 Мбит/сек
ВидеоИдентификатор : 4113 (0x1011)Идентификатор меню : 1 (0x1)Формат : AVCФормат/Информация : Advanced Video CodecПрофиль формата : High@L3.0Параметр CABAC формата : ДаПараметр ReFrames формата : 4 кадраИдентификатор кодека : 27Продолжительность : 52 м.Битрейт : 3195 Кбит/секШирина : 720 пикселейВысота : 576 пикселейСоотношение сторон : 4:3Частота кадров : 25,000 кадров/секСтандарт вещания : PALЦветовое пространство : YUVСубдискретизация насыщенности : 4:2:0Битовая глубина : 8 битТип развёртки : ЧересстрочнаяПорядок развёртки : Верхнее поле первоеБит/(Пиксели*Кадры) : 0.308Размер потока : 1,17 Гбайт (90%)Основные цвета : BT.601 PALХарактеристики трансфера : BT.470 System B, BT.470 System GКоэффициенты матрицы : BT.601
Аудио #1Идентификатор : 4352 (0x1100)Идентификатор меню : 1 (0x1)Формат : MPEG AudioВерсия формата : Version 1Профиль формата : Layer 2Идентификатор кодека : 4Продолжительность : 52 м.Вид битрейта : ПостоянныйБитрейт : 96,0 Кбит/секКаналы : 2 каналаЧастота : 48,0 КГцМетод сжатия : С потерямиРазмер потока : 35,9 Мбайт (3%)Язык : Russian
Аудио #2Идентификатор : 4353 (0x1101)Идентификатор меню : 1 (0x1)Формат : MPEG AudioВерсия формата : Version 1Профиль формата : Layer 2Идентификатор кодека : 4Продолжительность : 52 м.Вид битрейта : ПостоянныйБитрейт : 96,0 Кбит/секКаналы : 2 каналаЧастота : 48,0 КГцМетод сжатия : С потерямиРазмер потока : 35,9 Мбайт (3%)Язык : English

Скриншоты



_________________
Показать сообщения:    

Текущее время: Сегодня 03:14

Часовой пояс: GMT



Вы не можете начинать темы
Вы не можете отвечать на сообщения
Вы не можете редактировать свои сообщения
Вы не можете удалять свои сообщения
Вы не можете голосовать в опросах
Вы не можете прикреплять файлы к сообщениям
Вы не можете скачивать файлы