Важное объявление!
У Нас Все раздачи мультитрекерные, при нуле пиров в релизах, можете смело вставать на закачку!
 
Автор Сообщение

HUNTER

Стаж:
4 года 4 месяца
Сообщений:
56822

Репутация: 101

[+] [-]
Вне форума [Профиль] [ЛС]

Мальчик в полосатой пижаме / The Boy in the Striped Pyjamas (Pajamas)
Страна: США, Великобритания
Жанр: драма, военный
Год выпуска: 2008
Продолжительность: 01:34:25
Перевод: Профессиональный (дублированный)
Перевод: Профессиональный (двухголосый закадровый)
Cубтитры: Russian (Forced, Full, Commentary), English
Оригинальная аудиодорожка: английский
Режиссер: Марк Херман / Mark Herman
В ролях: Эйса Баттерфилд, Джек Скэнлон, Дэвид Тьюлис, Вера Фармига, Эмбер Битти, Шила Хэнкок, Ричард Джонсон, Кара Хорган, Дэвид Хеймен, Руперт Френд
Описание: История, происходящая во время Второй мировой войны и показанная сквозь глаза невинного и ничего не подозревающего о происходящих событиях Бруно, восьмилетнего сына коменданта концентрационного лагеря. Его случайное знакомство и дружба с еврейским мальчиком по другую сторону ограды лагеря, в конечном счете, приводит к самым непредсказуемым и ошеломительным последствиям.
Доп. информация: Энкод с испанского издания, спасибо 9mm @ HDBits. Дубляж - с лицензионного издания, двухголоска - с ремукса. Сравнение с предыдущим рипом под спойлером.
Сэмпл: https://yadi.sk/i/w52MPAX7eJ5z8
Тип релиза: BDRip 1080p - CtrlHD
Контейнер: MKV
Видео: AVC 1920x1038 (1.85:1) 24.000 fps, 15561 kbps
Аудио: Russian / Dolby Digital Audio / 5.1 / 48 kHz / 384 kbps (Дубляж)
Аудио: Russian / Dolby Digital Audio / 2.0 / 48 kHz / 192 kbps (Двухголосый закадровый)
Аудио: English / Dolby Digital Audio / 5.1 / 48 kHz / 640 kbps

The Boy in the Striped Pyjamas 2008 RERIP 1080p BluRay DD5.1 x264-CtrlHD

.GENERAL iNFORMATiONRUNTiME.......: 1h:34m:25sSiZE..........: 10.6GBViDEO.CODEC...: x264, CRF18, L4.1FRAMERATE.....: 24fpsBiTRATE.......: 15560KbpsRESOLUTiON....: 1920x1038AUDiO.........: English DD 5.1 @ 640KbpsSUBTiTLES.....: Eng,Cze,Fin,Fre,Ger,NorSUBS.FORMAT...: UTF-8 embedded srtCHAPTERS......: Numbered like on Blu-raySOURCES.......: The Boy in the Striped Pyjamas 2008 1080p ESP Blu-ray AVC DTS-HD MA 5.1iMDB.RATiNG...: 7.8/10 (100,860 votes)iMDB.LiNK.....: http://www.imdb.com/title/tt0914798/
.NOTESNew encode using the higher bitrate spanish source.Debanding filter + zone for the intro.Fixed the sides dirty lines with BalanceBorders(0,0,2,7)
Remove the ads/tables of image hosts with this GreaseMonkey script:Show Just Image 3http://userscripts.org/scripts/show/109890http://userscripts-mirror.org/scripts/show/109890
.LOGx264 [info]: frame I:1122 Avg QP:17.07 size:221422x264 [info]: frame P:26383 Avg QP:18.01 size:137846x264 [info]: frame B:108466 Avg QP:19.38 size: 65784x264 [info]: consecutive B-frames: 1.6% 2.2% 5.4% 9.0% 8.1% 64.6% 2.7% 1.5% 5.0%x264 [info]: encoded 135971 frames, 2.72 fps, 15561.80 kb/s, duration 13:52:53.68
Source vs new encode (ESP) vs old encode (USA)



MediaInfo

General
Unique ID : 228059919633555420578426781898256849078 (0xAB92BE2A591EA2B7BFB8ED60B37298B6)
Complete name : D:\The Boy in the Striped Pajamas 2008 1080p.mkv
Format : Matroska
Format version : Version 4 / Version 2
File size : 11.1 GiB
Duration : 1h 34mn
Overall bit rate : 16.8 Mbps
Encoded date : UTC 2015-01-28 12:24:34
Writing application : mkvmerge v7.3.0 ('Nouages') 32bit built on Oct 22 2014 18:44:01
Writing library : libebml v1.3.0 + libmatroska v1.4.1
DURATION : 01:29:40.624000000
NUMBER_OF_FRAMES : 1353
NUMBER_OF_BYTES : 92794
_STATISTICS_WRITING_APP : mkvmerge v7.3.0 ('Nouages') 32bit built on Oct 22 2014 18:44:01
_STATISTICS_WRITING_DATE_UTC : 2015-01-28 12:24:34
_STATISTICS_TAGS : BPS DURATION NUMBER_OF_FRAMES NUMBER_OF_BYTES
Video
ID : 1
Format : AVC
Format/Info : Advanced Video Codec
Format profile : High@L4.1
Format settings, CABAC : Yes
Format settings, ReFrames : 4 frames
Codec ID : V_MPEG4/ISO/AVC
Duration : 1h 34mn
Bit rate : 15.2 Mbps
Width : 1 920 pixels
Height : 1 038 pixels
Display aspect ratio : 1.85:1
Frame rate mode : Constant
Frame rate : 24.000 fps
Color space : YUV
Chroma subsampling : 4:2:0
Bit depth : 8 bits
Scan type : Progressive
Bits/(Pixel*Frame) : 0.318
Stream size : 10.0 GiB (91%)
Title : The Boy In The Striped Pajamas (2008)
Writing library : x264 core 142 r2479kMod dd79a61
Encoding settings : cabac=1 / ref=4 / deblock=1:-3:-3 / analyse=0x3:0x133 / me=umh / subme=10 / psy=1 / fade_compensate=0.00 / psy_rd=1.05:0.00 / mixed_ref=1 / me_range=16 / chroma_me=1 / trellis=2 / 8x8dct=1 / cqm=0 / deadzone=21,11 / fast_pskip=0 / chroma_qp_offset=-2 / threads=6 / lookahead_threads=1 / sliced_threads=0 / nr=0 / decimate=0 / interlaced=0 / bluray_compat=0 / constrained_intra=0 / fgo=0 / bframes=8 / b_pyramid=2 / b_adapt=2 / b_bias=0 / direct=3 / weightb=1 / open_gop=0 / weightp=2 / keyint=250 / keyint_min=24 / scenecut=40 / intra_refresh=0 / rc=crf / mbtree=0 / crf=18.0000 / qcomp=0.60 / qpmin=0 / qpmax=69 / qpstep=4 / ip_ratio=1.30 / pb_ratio=1.20 / aq=1:0.80 / zones=0,1860,crf=16
Language : English
Default : Yes
Forced : No
DURATION : 01:34:25.459000000
NUMBER_OF_FRAMES : 135971
NUMBER_OF_BYTES : 11020592011
_STATISTICS_WRITING_APP : mkvmerge v7.3.0 ('Nouages') 32bit built on Oct 22 2014 18:44:01
_STATISTICS_WRITING_DATE_UTC : 2015-01-28 12:24:34
_STATISTICS_TAGS : BPS DURATION NUMBER_OF_FRAMES NUMBER_OF_BYTES
Audio #1
ID : 2
Format : AC-3
Format/Info : Audio Coding 3
Mode extension : CM (complete main)
Format settings, Endianness : Big
Codec ID : A_AC3
Duration : 1h 34mn
Bit rate mode : Constant
Bit rate : 384 Kbps
Channel(s) : 6 channels
Channel positions : Front: L C R, Side: L R, LFE
Sampling rate : 48.0 KHz
Bit depth : 16 bits
Compression mode : Lossy
Stream size : 259 MiB (2%)
Title : Дубляж
Language : Russian
Default : Yes
Forced : No
Audio #2
ID : 3
Format : AC-3
Format/Info : Audio Coding 3
Mode extension : CM (complete main)
Format settings, Endianness : Big
Codec ID : A_AC3
Duration : 1h 34mn
Bit rate mode : Constant
Bit rate : 192 Kbps
Channel(s) : 2 channels
Channel positions : Front: L R
Sampling rate : 48.0 KHz
Bit depth : 16 bits
Compression mode : Lossy
Stream size : 130 MiB (1%)
Title : DVO
Language : Russian
Default : No
Forced : No
Audio #3
ID : 4
Format : AC-3
Format/Info : Audio Coding 3
Mode extension : CM (complete main)
Format settings, Endianness : Big
Codec ID : A_AC3
Duration : 1h 34mn
Bit rate mode : Constant
Bit rate : 640 Kbps
Channel(s) : 6 channels
Channel positions : Front: L C R, Side: L R, LFE
Sampling rate : 48.0 KHz
Bit depth : 16 bits
Compression mode : Lossy
Stream size : 432 MiB (4%)
Language : English
Default : No
Forced : No
Text #1
ID : 5
Format : UTF-8
Codec ID : S_TEXT/UTF8
Codec ID/Info : UTF-8 Plain Text
Title : Forced
Language : Russian
Default : Yes
Forced : Yes
Text #2
ID : 6
Format : UTF-8
Codec ID : S_TEXT/UTF8
Codec ID/Info : UTF-8 Plain Text
Language : Russian
Default : No
Forced : No
Text #3
ID : 7
Format : UTF-8
Codec ID : S_TEXT/UTF8
Codec ID/Info : UTF-8 Plain Text
Title : Commentary
Language : Russian
Default : No
Forced : No
Text #4
ID : 8
Format : UTF-8
Codec ID : S_TEXT/UTF8
Codec ID/Info : UTF-8 Plain Text
Language : English
Default : No
Forced : No
Menu
00:00:00.000 : :Chapter 1
00:07:24.125 : :Chapter 2
00:14:37.583 : :Chapter 3
00:21:48.833 : :Chapter 4
00:27:33.500 : :Chapter 5
00:33:12.583 : :Chapter 6
00:39:09.583 : :Chapter 7
00:45:07.208 : :Chapter 8
00:51:02.625 : :Chapter 9
00:57:37.792 : :Chapter 10
01:03:44.083 : :Chapter 11
01:10:41.125 : :Chapter 12
01:16:45.000 : :Chapter 13
01:22:52.250 : :Chapter 14
01:28:40.583 : :Chapter 15

Скриншоты




_________________
Показать сообщения:    

Текущее время: Сегодня 02:56

Часовой пояс: GMT



Вы не можете начинать темы
Вы не можете отвечать на сообщения
Вы не можете редактировать свои сообщения
Вы не можете удалять свои сообщения
Вы не можете голосовать в опросах
Вы не можете прикреплять файлы к сообщениям
Вы не можете скачивать файлы