Важное объявление!
У Нас Все раздачи мультитрекерные, при нуле пиров в релизах, можете смело вставать на закачку!
 
Автор Сообщение

HUNTER

Стаж:
4 года 4 месяца
Сообщений:
56734

Репутация: 101

[+] [-]
Вне форума [Профиль] [ЛС]

Малыши из мусорного бака / The Garbage Pail Kids Movie-
Страна: США
Жанр: мюзикл, фантастика, комедия, приключения, семейный
Год выпуска: 1987
Продолжительность: 01:36:37
Перевод: Профессиональный (двухголосый закадровый) НТВ+
Перевод 2: Авторский (одноголосый закадровый) Антон Алексеев
Cубтитры: английские
Оригинальная аудиодорожка: английский
Режиссер: Родни Амато / Rodney Amateau
В ролях: Фил Фондакаро, Энтони Ньюли, МакКензи Эстин, Кэти Барбери, Рон МакЛахлан, Дж.П. Амато, Мэрджори Грайе, Дебби Ли Кэррингтон, Кевин Томпсон, Бобби Белл
Описание: Подросток дружит со странным владельцем антикварного магазина. Он позволяет ему трогать и рассматривать в своей лавке все, кроме старого помойного бака, всегда закрытого крышкой. Что произойдет когда крышка откроется?
Доп. информация: За синхронизацию звуковых дорожек большое спасибо *Sergeant_am*.

Автор рипа: Sem-te
Релиз от:
Тип релиза: BDRip 1080p
Контейнер: MKV
Видео: MPEG-4 AVC, 12900 Кбит/с, 1920x1040, 23.976 кадр/с
Аудио 1: Russian AC3 / 2.0 / 48 kHz / 192 kbps / 16 bits |НТВ+|
Аудио 2: Russian AC3 / 2.0 / 48 kHz / 192 kbps / 16 bits |Антон Алексеев|
Аудио 3: English DTS / 2.0 / 48 kHz / 1509 kbps / 24 bits

MediaInfo

General
Unique ID : 189579364084722709754748798241399187034 (0x8E9FA84C35A662C5A9DC4FDA4AB1265A)
Format : Matroska
Format version : Version 2
File size : 10.0 GiB
Duration : 1h 36mn
Overall bit rate : 14.8 Mbps
Movie name : The.Garbage.Pail.Kids.Movie.1987.1080p.BluRay.x264.DTS.Sem-te
Encoded date : UTC 2016-07-30 16:26:26
Writing application : mkvmerge v7.8.0 ('River Man') 32bit built on Apr 3 2015 12:11:22
Writing library : libebml v1.3.1 + libmatroska v1.4.2
Video
ID : 1
Format : AVC
Format/Info : Advanced Video Codec
Format profile : High@L4.1
Format settings, CABAC : Yes
Format settings, ReFrames : 4 frames
Codec ID : V_MPEG4/ISO/AVC
Duration : 1h 36mn
Bit rate : 12.9 Mbps
Width : 1 920 pixels
Height : 1 040 pixels
Display aspect ratio : 1.85:1
Frame rate mode : Constant
Frame rate : 23.976 fps
Color space : YUV
Chroma subsampling : 4:2:0
Bit depth : 8 bits
Scan type : Progressive
Bits/(Pixel*Frame) : 0.270
Stream size : 8.53 GiB (85%)
Writing library : x264 core 148 r2665 a01e339
Encoding settings : cabac=1 / ref=4 / deblock=1:-2:-2 / analyse=0x3:0x113 / me=umh / subme=11 / psy=1 / psy_rd=1.00:0.00 / mixed_ref=1 / me_range=48 / chroma_me=1 / trellis=2 / 8x8dct=1 / cqm=0 / deadzone=21,11 / fast_pskip=0 / chroma_qp_offset=-2 / threads=8 / lookahead_threads=1 / sliced_threads=0 / nr=0 / decimate=1 / interlaced=0 / bluray_compat=0 / constrained_intra=0 / bframes=12 / b_pyramid=0 / b_adapt=1 / b_bias=0 / direct=1 / weightb=1 / open_gop=0 / weightp=2 / keyint=240 / keyint_min=24 / scenecut=40 / intra_refresh=0 / rc_lookahead=60 / rc=2pass / mbtree=1 / bitrate=12923 / ratetol=1.0 / qcomp=0.60 / qpmin=0 / qpmax=69 / qpstep=4 / cplxblur=20.0 / qblur=0.5 / vbv_maxrate=50000 / vbv_bufsize=25000 / nal_hrd=none / filler=0 / ip_ratio=1.40 / aq=1:1.00
Language : English
Default : Yes
Forced : No
Audio #1
ID : 2
Format : AC-3
Format/Info : Audio Coding 3
Mode extension : CM (complete main)
Format settings, Endianness : Big
Codec ID : A_AC3
Duration : 1h 36mn
Bit rate mode : Constant
Bit rate : 192 Kbps
Channel(s) : 2 channels
Channel positions : Front: L R
Sampling rate : 48.0 KHz
Bit depth : 16 bits
Compression mode : Lossy
Stream size : 133 MiB (1%)
Title : НТВ+
Language : Russian
Default : Yes
Forced : No
Audio #2
ID : 3
Format : AC-3
Format/Info : Audio Coding 3
Mode extension : CM (complete main)
Format settings, Endianness : Big
Codec ID : A_AC3
Duration : 1h 36mn
Bit rate mode : Constant
Bit rate : 192 Kbps
Channel(s) : 2 channels
Channel positions : Front: L R
Sampling rate : 48.0 KHz
Bit depth : 16 bits
Compression mode : Lossy
Stream size : 133 MiB (1%)
Title : Антон Алексеев
Language : Russian
Default : No
Forced : No
Audio #3
ID : 4
Format : DTS
Format/Info : Digital Theater Systems
Mode : 16
Format settings, Endianness : Big
Codec ID : A_DTS
Duration : 1h 36mn
Bit rate mode : Constant
Bit rate : 1 509 Kbps
Channel(s) : 2 channels
Channel positions : Front: L R
Sampling rate : 48.0 KHz
Bit depth : 24 bits
Compression mode : Lossy
Stream size : 1.02 GiB (10%)
Language : English
Default : No
Forced : No
Text
ID : 5
Format : PGS
Muxing mode : zlib
Codec ID : S_HDMV/PGS
Codec ID/Info : The same subtitle format used on BDs/HD-DVDs
Title : SDH
Language : English
Default : No
Forced : No
Menu
00:00:00.000 : en:Chapter 01
00:10:44.561 : en:Chapter 02
00:16:25.109 : en:Chapter 03
00:23:34.163 : en:Chapter 04
00:32:15.225 : en:Chapter 05
00:41:39.706 : en:Chapter 06
00:48:15.017 : en:Chapter 07
00:55:33.622 : en:Chapter 08
01:01:17.257 : en:Chapter 09
01:09:40.259 : en:Chapter 10
01:18:36.754 : en:Chapter 11
01:25:24.953 : en:Chapter 12

Скриншоты


_________________
Показать сообщения:    

Текущее время: Сегодня 08:22

Часовой пояс: GMT



Вы не можете начинать темы
Вы не можете отвечать на сообщения
Вы не можете редактировать свои сообщения
Вы не можете удалять свои сообщения
Вы не можете голосовать в опросах
Вы не можете прикреплять файлы к сообщениям
Вы не можете скачивать файлы