Важное объявление!
У Нас Все раздачи мультитрекерные, при нуле пиров в релизах, можете смело вставать на закачку!
 
Автор Сообщение

HUNTER

Стаж:
4 года 4 месяца
Сообщений:
56733

Репутация: 101

[+] [-]
Вне форума [Профиль] [ЛС]

Маленький принц / Le Petit Prince / The Little Prince
Страна: Франция, Канада
Жанр: мультфильм, фэнтези, драма, приключения
Год выпуска: 2015
Продолжительность: 01:46:34
Перевод: Профессиональный (дублированный)
Cубтитры: Russian, Russian (Forced), English, English (Full, SDH), English (Forced)
Оригинальная аудиодорожка: английский-Режиссер: Марк Осборн / Mark Osborne-В ролях: Джефф Бриджес, Рэйчел МакАдамс, Пол Радд, Марион Котийяр, Джеймс Франко, Бенисио Дель Торо, Рики Джервэйс, Бад Корт, Пол Джаматти, Райли Осборн-Описание: Мир невозможен без фантазии и приключений. По крайней мере в это верит добродушный старик авиатор, по соседству с которым недавно поселилась одна очень педантичная мама со своей прилежной дочкой. Жизнь девочки подчинена строгому учебному плану, в котором время на друзей предусмотрено только следующим летом. Однако этот тщательно выстроенный план трещит по швам, когда в жизнь девочки врывается странный сосед с его невероятными рассказами о Маленьком Принце и далеких звездах. Осталось только починить самолет, и в путь! Так начинается большое путешествие девочки - полное опасностей, волшебства, юмора и настоящей дружбы.-Релиз:
-Качество видео: BDRip
Формат видео: MKV
Видео: 1920 x 818 at 23.976 fps, x264@L4.1, crf, ~8012 kbps avg
Аудио 1: Russian: 48 kHz, DTS, 3/2 (L,C,R,l,r) + LFE ch, ~1509.00 kbps avg
Аудио 2: English: 48 kHz, AC3, 3/2 (L,C,R,l,r) ch, ~ 640.00 kbps avg-

Дополнительно

  • Сохранены оригинальные главы как на Blu-ray.
  • Выражаю огромную благодарность за помощь в подготовке данного релиза DoroshDan и Парагматик

MediaInfo

Код:
Format                      : Matroska
Format version              : Version 4 / Version 2
File size                   : 7.70 GiB
Duration                    : 1h 46mn
Overall bit rate            : 10.3 Mbps
Encoded date                : UTC 2016-08-02 17:14:59
Writing application         : mkvmerge v8.3.0 ('Over the Horizon') 64bit
Writing library             : libebml v1.3.1 + libmatroska v1.4.2
Cover                       : Yes
Attachments                 : cover
Video
ID                          : 1
Format                      : AVC
Format/Info                 : Advanced Video Codec
Format profile              : High@L4.1
Format settings, CABAC      : Yes
Format settings, ReFrames   : 5 frames
Codec ID                    : V_MPEG4/ISO/AVC
Duration                    : 1h 46mn
Bit rate                    : 8 185 Kbps
Width                       : 1 920 pixels
Height                      : 818 pixels
Display aspect ratio        : 2.35:1
Frame rate mode             : Constant
Frame rate                  : 23.976 (24000/1001) fps
Color space                 : YUV
Chroma subsampling          : 4:2:0
Bit depth                   : 8 bits
Scan type                   : Progressive
Bits/(Pixel*Frame)          : 0.217
Stream size                 : 6.09 GiB (79%)
Title                       : The Little Prince (2015)
Writing library             : x264 core 148 r2638 7599210
Encoding settings           : cabac=1 / ref=5 / deblock=1:-3:-3 / analyse=0x3:0x133 / me=umh / subme=10 / psy=1 / psy_rd=0.60:0.00 / mixed_ref=1 / me_range=24 / chroma_me=1 / trellis=2 / 8x8dct=1 / cqm=0 / deadzone=21,11 / fast_pskip=0 / chroma_qp_offset=-2 / threads=12 / lookahead_threads=2 / sliced_threads=0 / nr=0 / decimate=0 / interlaced=0 / bluray_compat=0 / constrained_intra=0 / bframes=9 / b_pyramid=2 / b_adapt=2 / b_bias=0 / direct=3 / weightb=1 / open_gop=0 / weightp=2 / keyint=250 / keyint_min=23 / scenecut=40 / intra_refresh=0 / rc_lookahead=60 / rc=crf / mbtree=0 / crf=16.4 / qcomp=0.60 / qpmin=0 / qpmax=69 / qpstep=4 / vbv_maxrate=62500 / vbv_bufsize=78125 / crf_max=0.0 / nal_hrd=none / filler=0 / ip_ratio=1.30 / pb_ratio=1.20 / aq=3:1.05
Language                    : English
Default                     : Yes
Forced                      : No
Color range                 : Limited
Matrix coefficients         : BT.709
Audio #1
ID                          : 2
Format                      : DTS
Format/Info                 : Digital Theater Systems
Mode                        : 16
Format settings, Endianness : Big
Codec ID                    : A_DTS
Duration                    : 1h 46mn
Bit rate mode               : Constant
Bit rate                    : 1 510 Kbps
Channel(s)                  : 6 channels
Channel positions           : Front: L C R, Side: L R, LFE
Sampling rate               : 48.0 KHz
Frame rate                  : 93.750 fps (512 spf)
Bit depth                   : 24 bits
Compression mode            : Lossy
Stream size                 : 1.12 GiB (15%)
Title                       : Дубляж, BD Rus
Language                    : Russian
Default                     : Yes
Forced                      : No
Audio #2
ID                          : 3
Format                      : AC-3
Format/Info                 : Audio Coding 3
Mode extension              : CM (complete main)
Format settings, Endianness : Big
Codec ID                    : A_AC3
Duration                    : 1h 46mn
Bit rate mode               : Constant
Bit rate                    : 640 Kbps
Channel(s)                  : 6 channels
Channel positions           : Front: L C R, Side: L R, LFE
Sampling rate               : 48.0 KHz
Frame rate                  : 31.250 fps (1536 spf)
Compression mode            : Lossy
Stream size                 : 488 MiB (6%)
Title                       : Оригинал
Language                    : English
Default                     : No
Forced                      : No
Text #1
ID                          : 4
Format                      : UTF-8
Codec ID                    : S_TEXT/UTF8
Codec ID/Info               : UTF-8 Plain Text
Duration                    : 1h 35mn
Bit rate                    : 0 bps
Count of elements           : 9
Stream size                 : 341 Bytes (0%)
Title                       : Forced
Language                    : Russian
Default                     : Yes
Forced                      : No
Text #2
ID                          : 5
Format                      : UTF-8
Codec ID                    : S_TEXT/UTF8
Codec ID/Info               : UTF-8 Plain Text
Duration                    : 1h 39mn
Bit rate                    : 66 bps
Count of elements           : 1036
Stream size                 : 49.0 KiB (0%)
Title                       : Full
Language                    : Russian
Default                     : No
Forced                      : No
Text #3
ID                          : 6
Format                      : UTF-8
Codec ID                    : S_TEXT/UTF8
Codec ID/Info               : UTF-8 Plain Text
Duration                    : 1h 35mn
Bit rate                    : 0 bps
Count of elements           : 11
Stream size                 : 228 Bytes (0%)
Title                       : Forced
Language                    : English
Default                     : No
Forced                      : No
Text #4
ID                          : 7
Format                      : UTF-8
Codec ID                    : S_TEXT/UTF8
Codec ID/Info               : UTF-8 Plain Text
Duration                    : 1h 37mn
Bit rate                    : 40 bps
Count of elements           : 1033
Stream size                 : 29.0 KiB (0%)
Title                       : Full
Language                    : English
Default                     : No
Forced                      : No
Text #5
ID                          : 8
Format                      : UTF-8
Codec ID                    : S_TEXT/UTF8
Codec ID/Info               : UTF-8 Plain Text
Duration                    : 1h 40mn
Bit rate                    : 46 bps
Count of elements           : 1154
Stream size                 : 33.7 KiB (0%)
Title                       : Full SDH
Language                    : English
Default                     : No
Forced                      : No
Menu
00:00:00.000                : en:Chapter 01
00:06:11.871                : en:Chapter 02
00:16:06.966                : en:Chapter 03
00:22:35.854                : en:Chapter 04
00:32:19.771                : en:Chapter 05
00:38:05.366                : en:Chapter 06
00:43:55.675                : en:Chapter 07
00:49:36.849                : en:Chapter 08
00:57:30.864                : en:Chapter 09
01:08:33.234                : en:Chapter 10
01:14:06.359                : en:Chapter 11
01:20:31.744                : en:Chapter 12
01:27:21.945                : en:Chapter 13
01:39:06.023                : en:Chapter 14

Скриншоты


_________________
Показать сообщения:    

Текущее время: Сегодня 04:51

Часовой пояс: GMT



Вы не можете начинать темы
Вы не можете отвечать на сообщения
Вы не можете редактировать свои сообщения
Вы не можете удалять свои сообщения
Вы не можете голосовать в опросах
Вы не можете прикреплять файлы к сообщениям
Вы не можете скачивать файлы