Важное объявление!
У Нас Все раздачи мультитрекерные, при нуле пиров в релизах, можете смело вставать на закачку!
 
Автор Сообщение

HUNTER

Стаж:
4 года 4 месяца
Сообщений:
56733

Репутация: 101

[+] [-]
Вне форума [Профиль] [ЛС]

-
Год выпуска: 2013
Страна: Япония
Жанр: комедия, драма, романтика
Продолжительность: 13 эп. по 24 мин.
Выпуск: c 05.10.2013 по 28.12.2013-Перевод:
  • русские субтитры от gorodoshnik & Nachtwandler (полные/вспомогательные) [TV]
  • русские субтитры от Veles & Nicollo & Vadamas (полные/вспомогательные) [SP]
-Режиссер: Ямакава Ёсики
Студия: J.C. Staff-Описание:
Компания друзей детства, известная как «Маленькие проказники», живет и не тужит в старшей школе-интернате, постоянно придумывая новые забавы и приключения. Добрые дела не остаются безнаказанными, ряды «проказников» растут и пополняются незаурядными личностями. Не радует лишь, что заводила группы Кёсукэ Нацумэ на год старше остальных, а значит, неизбежно скорое расставание. Зная это, Нацумэ начал отдаляться от коллектива, оставив «на хозяйстве» Рики Наоэ – пусть не самого крепкого, зато умного и наблюдательного парня. И вот Наоэ, несмотря на пережитые с ребятами минуты счастья, смог заглянуть в себя и понял главное – с окружающим миром что-то не так. Все не так, как надо!
Могут ли счастливые дни течь тихо и безмятежно, будто неспешная река детства? Если да – откуда у нового лидера постоянные приступы дежа вю, страха и уверенности, что всё вокруг – зыбкая и неверная иллюзия? Таинственные силы, обещавшие Рики и его девушке Рин раскрыть секрет мира, не сдержали обещание, только больше все запутали. А причина проста – ответы не надо ждать на блюдечке, их надо выцарапывать у судьбы, получая синяки и шишки. Ничто не длится вечно, все имеет начало и конец, все могут ошибаться. Но при этом, что придумал один – обязательно поймет другой, а дружба и любовь помогут не только исправить ошибки, но и противостоять злому року. Что ни говори, а «Маленькие проказники» еще не сыграли свой лучший матч!
© Hollow, World Art-Информационные ссылки: AniDB || World Art || MAL-Качество: BDRip
Энкод: Winter - RG Pantheon
Тип видео: без хардсаба, без линковки
Формат: mkv
Видео: x264 (Hi10p), 1280x720, ~3000 Kbps, 23.976 fps
Аудио JAP: Vorbis, 48000Hz, ~256 Kbps, 2ch
Аудио RUS 1-3: AC3, 48000Hz, ~192 Kbps, 2ch (внешними файлами)-

Список озвучек в раздаче

  • одноголосая (муж.) от FruKt (Animedia)
  • двухголосая (муж./жен.) от ProjectmaN & MezIdA (Anifilm)
  • трехголосая от Zendos & Eladiel & Lupin (Anilibria)

Список эпизодов

01. It Struck Without Warning
02. It Was Raining Back Then, Too
SP 1.

Скриншоты


Подробные тех. данные

Общее
Уникальный идентификатор : 173957189949338069271124654661497679582 (0x82DEEFA55488DA79B22D86EE20266EDE)
Полное имя : Z:\Anime\720p\Little Busters! Refrain [BD] [720p]\[Winter] Little Busters! Refrain 01 [BDrip 1280x720 x264 Vorbis].mkv
Формат : Matroska
Версия формата : Version 2
Размер файла : 568 Мбайт
Продолжительность : 23 м.
Режим общего битрейта : Переменный
Общий поток : 3348 Кбит/сек
Дата кодирования : UTC 2014-04-10 17:18:37
Программа кодирования : mkvmerge v2.9.8 ('C'est le bon') built on Aug 13 2009 12:49:06
Библиотека кодирования : libebml v0.7.7 + libmatroska v0.8.1
Видео
Идентификатор : 1
Формат : AVC
Формат/Информация : Advanced Video Codec
Профиль формата : High 10@L4.1
Параметр CABAC формата : Да
Параметр ReFrames формата : 9 кадров
Идентификатор кодека : V_MPEG4/ISO/AVC
Продолжительность : 23 м.
Битрейт : 3026 Кбит/сек
Ширина : 1280 пикселей
Высота : 720 пикселей
Соотношение сторон : 16:9
Режим частоты кадров : Постоянный
Частота кадров : 23,976 кадра/сек
Цветовое пространство : YUV
Субдискретизация насыщенности : 4:2:0
Битовая глубина : 10 бит
Тип развёртки : Прогрессивная
Бит/(Пиксели*Кадры) : 0.137
Размер потока : 513 Мбайт (90%)
Библиотека кодирования : x264 core 132 r2309 3b1f1f7
Настройки программы : cabac=1 / ref=9 / deblock=1:-2:-2 / analyse=0x3:0x133 / me=umh / subme=9 / psy=1 / psy_rd=0.90:0.00 / mixed_ref=1 / me_range=24 / chroma_me=1 / trellis=2 / 8x8dct=1 / cqm=0 / deadzone=21,11 / fast_pskip=1 / chroma_qp_offset=-2 / threads=12 / lookahead_threads=2 / sliced_threads=0 / nr=0 / decimate=0 / interlaced=0 / bluray_compat=0 / constrained_intra=0 / bframes=8 / b_pyramid=2 / b_adapt=2 / b_bias=0 / direct=1 / weightb=1 / open_gop=0 / weightp=2 / keyint=250 / keyint_min=23 / scenecut=40 / intra_refresh=0 / rc=crf / mbtree=0 / crf=15.7 / qcomp=0.70 / qpmin=9 / qpmax=42 / qpstep=4 / ip_ratio=1.40 / pb_ratio=1.30 / aq=1:0.90
Default : Нет
Forced : Нет
Аудио
Идентификатор : 2
Формат : Vorbis
Параметр Floor формата : 1
Идентификатор кодека : A_VORBIS
Продолжительность : 23 м.
Вид битрейта : Переменный
Битрейт : 256 Кбит/сек
Каналы : 2 канала
Частота : 48,0 КГц
Метод сжатия : С потерями
Размер потока : 43,4 Мбайт (8%)
Библиотека кодирования : libVorbis (Schaufenugget) (20101101 (Schaufenugget))
Язык : Japanese
Default : Да
Forced : Нет
- -

Информация о релизе

  • Выбор видео, перевода, озвучки, а также типа сборки материала осуществляется релизером и не подлежит обсуждению. Если вы считаете, что раздаваемый материал противоречит правилам раздела "Аниме" rutracker.org, сообщите об этом одному из модераторов раздела.
  • В случае появления нового материала или же лучшего по качеству материала релизер оставляет за собой право обновить раздачу. В этом случае вам необходимо ознакомиться с изменениями (добавлениями) и перекачать торрент.
  • Данный релиз предназначен для просмотра на ПК. Воспроизведение на иных проигрывателях не гарантируется. Для просмотра рекомендуется Media Player Classic с установленным пакетом кодеков K-Lite.
  • Данный релиз содержит 10-битное видео (Hi10p). Для корректного воспроизведения обязательно используйте кодеки, поддерживающие 10-битное видео.
    Обсудить частные случаи проблем с воспроизведением и получить дополнительную информацию можно здесь.

  • Данный релиз предназначен для просмотра с внешними субтитрами и внешними звуковыми дорожками.
    • Для просмотра с внешней звуковой дорожкой нужно:
      перекинуть файлы .mka из папки "RUS Sound [<автор(ы) озвучки>]" в одну папку с видео и переключить звуковую дорожку в плеере при просмотре. Как это сделать в разных плеерах подробно описано здесь.

    • Для просмотра с субтитрами нужно:
      перекинуть файлы .ass из папки "RUS Subtitles [<автор(ы) перевода>]" в одну папку с видео - плеер подгрузит их автоматически при открытии видео.
  • Если у вас возникли проблемы с просмотром, не связанные с описанным выше, сообщите о них автору раздачи посредством сообщения в теме или ЛС Aglenn.

_________________
Показать сообщения:    

Текущее время: Сегодня 18:13

Часовой пояс: GMT



Вы не можете начинать темы
Вы не можете отвечать на сообщения
Вы не можете редактировать свои сообщения
Вы не можете удалять свои сообщения
Вы не можете голосовать в опросах
Вы не можете прикреплять файлы к сообщениям
Вы не можете скачивать файлы