Важное объявление!
У Нас Все раздачи мультитрекерные, при нуле пиров в релизах, можете смело вставать на закачку!
 
Автор Сообщение

HUNTER

Стаж:
4 года 4 месяца
Сообщений:
56722

Репутация: 101

[+] [-]
Вне форума [Профиль] [ЛС]

Маленькие проказники / Little Busters!
Год выпуска: 2012
Страна: Япония
Жанр: комедия, драма, романтика
Тип: ТВ
Продолжительность: 26 эп., 25 мин.
Озвучка:
  • Одноголосая (жен.) от Persona99 (Get Smart) [эп. 1-14]
  • Одноголосая (муж.) от FruKt (AniMedia) [эп. 1-24]
  • Двухголосая (муж/жен) от Zendos & Eladiel (Anilibria)
  • Двухголосая (муж/жен) от Ancord & NikaLenina (AniDub)
  • Двухголосая (муж/жен) от ProjectmaN & MezIdA (RG Kujian & Anifilm)
  • Двухголосая (муж/жен) от Scrap & Kasumi (Timecraft & Kasumi) [эп. 1-7]
  • Многоголосая от Gezell Studio [эп. 1-13]
    Русские субтитры: есть (отдельным файлом, формат .ass, перевод - Hollow, KeeperRus)
    Хардсаб: Нет-Режиссер: Ямакава Ёсики
    Студия: J.C. Staff
    Описание: В огромной старшей школе-интернате, раскинувшейся среди лесов и полей, настоящий переполох - вернулся всеобщий любимец Кёсукэ Нацумэ! Загадочный выпускник то и дело исчезает, но каждое его возвращение рождает какие-то невероятные события и не дает скучать. С особым нетерпением возвращения командира ждали четверо: Рики, Масато, Кэнго и Рин, младшая сестра Кёсукэ. С детства их сплоченная группа «Маленькие проказники» держалась вместе, напрягая соседей, защищая справедливость, а главное – развлекаясь от души! Вот и сейчас, на пороге окончания школы и близкого расставания, лидер решил встряхнуть друзей, объявив, что совсем скоро они играют в бейсбол!
    Теперь под шепотки всей школы надо создать команду и набрать дополнительных игроков – как мудро заметил Кёсукэ, желательно девушек. Ну а мы в процессе набора, расстановки по позициям, игр и тренировок познакомимся с героями и героинями, поймем и полюбим мир «проказников», а может, и приблизимся к его главной тайне. Все не так просто, как кажется, и каждый персонаж, его характер, поступки, явные и скрытые радости и горести составляют огромный сюжетный гобелен, через который красной нитью проходит главная тема сериала. Развитие, взросление и переход в новую жизнь похожи на исчезновение из одного мира и рождение в другом. Без усилий, слез и жертв такое не происходит, но главное – дружба, отвага и честь сохраняют свою цену в обоих мирах!
    © Hollow, World Art
    Качество: Blu-Ray Remux
    Формат: MKV
    Видео кодек: AVC
    Аудио кодек: DTS
    Видео: 1920x1080 (16:9) 23,976 fps ~18.7 Mbps 8bit
    Аудио:
    Jap DTS, 48000Hz, ~1509 kbps 2ch
    RUS 1-7 (ext) AC3, 48000Hz, ~192 Kbps, 2ch
    Русские звуковые дорожки взяты из этой раздачи.
    Чаптеры присутствуют.
    Список эпизодов
    01. Мы назовемся... «Маленькие проказники»!
    02. Тебе хорошо ― и мне хорошо!
    03. Мне просто нравится все милое
    04. Мы им сделаем тепло и солнечно!
    05. Будем искать утраченное!
    06. Давайте искать прекрасное!
    07. А теперь ― угадай, кто?!
    08. В поисках соседей!
    09. Спасти школьную столовую!
    10. И неба синь, и моря синева
    11. Ко злу и призрак не идет
    12. Бесконечные голубые небеса
    13. Туда, где начало конца
    14. И потому я протяну тебе руку
    15. Блин, просто обалдеть!
    16. Не смотри на меня свысока
    17. Я так хотела, чтобы кто-то был рядом
    18. Ответ лежит в твоем сердце
    19. Я и правда могу, когда хочу!
    20. Исцелить любовный жар
    21. 50 морских миль в небо
    22. Я обязательно вернусь!
    23. Ради самого дорогого
    24. Тебе, Рин, хорошо ― и мне хорошо!
    25. Последний игрок
    26. Лучшие друзья в мире
    MediaInfo
    Общее
    Уникальный идентификатор : 245605113558186486315708961988038640520 (0xB8C5D30355B09EC898E040A086184388)
    Полное имя : M:\incoming\[DONE]\[anti-raws]Little Busters! ep.01[BDRemux].mkv
    Формат : Matroska
    Версия формата : Version 4 / Version 2
    Размер файла : 3,63 Гбайт
    Продолжительность : 25 м.
    Режим общего битрейта : Переменный
    Общий поток : 20,6 Мбит/сек
    Дата кодирования : UTC 2014-06-19 17:55:39
    Программа кодирования : mkvmerge v7.0.0 ('Where We Going') 64bit built on Jun 9 2014 15:16:27
    Библиотека кодирования : libebml v1.3.0 + libmatroska v1.4.1
    DURATION : 00:23:43.008000000
    NUMBER_OF_FRAMES : 133407
    NUMBER_OF_BYTES : 268414884
    _STATISTICS_WRITING_APP : mkvmerge v7.0.0 ('Where We Going') 64bit built on Jun 9 2014 15:16:27
    _STATISTICS_WRITING_DATE_UTC : 2014-06-19 17:55:39
    _STATISTICS_TAGS : BPS DURATION NUMBER_OF_FRAMES NUMBER_OF_BYTES
    Видео
    Идентификатор : 2
    Формат : AVC
    Формат/Информация : Advanced Video Codec
    Профиль формата : High@L4.1
    Параметр CABAC формата : Да
    Параметр ReFrames формата : 4 кадра
    Параметр GOP формата : M=3, N=24
    Идентификатор кодека : V_MPEG4/ISO/AVC
    Продолжительность : 25 м.
    Вид битрейта : Переменный
    Битрейт : 18,7 Мбит/сек
    Максимальный битрейт : 35,0 Мбит/сек
    Ширина : 1920 пикселей
    Высота : 1080 пикселей
    Соотношение сторон : 16:9
    Режим частоты кадров : Постоянный
    Частота кадров : 23,976 кадра/сек
    Стандарт вещания : NTSC
    Цветовое пространство : YUV
    Субдискретизация насыщенности : 4:2:0
    Битовая глубина : 8 бит
    Тип развёртки : Прогрессивная
    Бит/(Пиксели*Кадры) : 0.376
    Размер потока : 3,29 Гбайт (91%)
    Default : Нет
    Forced : Нет
    Основные цвета : BT.709
    Характеристики трансфера : BT.709
    Коэффициенты матрицы : BT.709
    Аудио
    Идентификатор : 1
    Формат : DTS
    Формат/Информация : Digital Theater Systems
    Режим : 16
    Параметр Endianness формата : Big
    Идентификатор кодека : A_DTS
    Продолжительность : 25 м.
    Вид битрейта : Постоянный
    Битрейт : 1509 Кбит/сек
    Каналы : 2 канала
    Расположение каналов : Front: L R
    Частота : 48,0 КГц
    Битовая глубина : 24 бит
    Метод сжатия : С потерями
    Размер потока : 272 Мбайт (7%)
    Язык : Japanese
    Default : Да
    Forced : Нет
    DURATION : 00:25:13.512000000
    NUMBER_OF_FRAMES : 36288
    NUMBER_OF_BYTES : 3626554561
    _STATISTICS_WRITING_APP : mkvmerge v7.0.0 ('Where We Going') 64bit built on Jun 9 2014 15:16:27
    _STATISTICS_WRITING_DATE_UTC : 2014-06-19 17:55:39
    _STATISTICS_TAGS : BPS DURATION NUMBER_OF_FRAMES NUMBER_OF_BYTES
    Меню
    00:00:00.000 : en:00:00:00.000
    00:08:40.979 : en:00:08:40.979
    00:10:11.027 : en:00:10:11.027
    00:12:51.938 : en:00:12:51.938
    00:21:56.315 : en:00:21:56.315
    00:23:26.030 : en:00:23:26.030
    00:23:42.421 : en:00:23:42.421
    СкриншотыОтличия от существующих раздач

  • _________________
    Показать сообщения:    

    Текущее время: Сегодня 14:55

    Часовой пояс: GMT



    Вы не можете начинать темы
    Вы не можете отвечать на сообщения
    Вы не можете редактировать свои сообщения
    Вы не можете удалять свои сообщения
    Вы не можете голосовать в опросах
    Вы не можете прикреплять файлы к сообщениям
    Вы не можете скачивать файлы