Важное объявление!
У Нас Все раздачи мультитрекерные, при нуле пиров в релизах, можете смело вставать на закачку!
 
Автор Сообщение

HUNTER

Стаж:
4 года 4 месяца
Сообщений:
56839

Репутация: 101

[+] [-]
Вне форума [Профиль] [ЛС]

-Маленькие герои-черепашки: Взрыв из Прошлого / Teenage Mutant Ninja Turtles - Half-Shell Heroes: Blast to the Past-
-• Страна: США
• Жанр: мультфильм, фантастика, комедия, приключения
• Продолжительность: 00:44:12
• Год выпуска: 2015
• Перевод 1: Профессиональный (дублированный) SDI Media, Nickelodeon
• Перевод 2: Любительский (многоголосый закадровый) ZM-Show-• Режиссёр: Глен Мураками / Glen Murakami
• Сценарий: Брэндон Оман, Кевин Истмэн, Питер Лэрд
• Продюсер: МакГрегор Миддлтон, Брэндон Оман, Глен Мураками, Владимир Радев
• Композитор: Себастьян Эванс / Sebastian Evans-• Роли озвучивали: Сет Грин (Леонардо), Шон Эстин (Рафаэль), Грег Сайпс (Микеланджело), Роб Полсен (Донателло), Кейт Малгрю (Генерал Зера), Эрик Бауза (Тигриный Коготь), Фред Татаскьор (Рокстеди), Дж.Б. Смув (Бибоп)-• Роли дублировали: Илья Хвостиков (Леонардо), Сергей Смирнов (Рафаэль), Прохор Чеховской (Микеланджело), Иван Калинин (Донателло), Иван Стеранко (Рокстеди), Антон Зек (Бибоп)-• Описание: Необычайные приключения известной четвёрки Черепашек ниндзя продолжаются, и на этот раз им предстоит путешествие в прошлое на несколько десятков миллионов лет. Коварный Шредер и его подручные задумали украсть из музея космический метеорит, обладающий необычными свойствами. Черепашки оказались поблизости и нарушив планы злодея сумели остановить Бибопа и Рокстеди. Кристалл оказался в надёжных руках, но пытливый Донателло решил проверить его силу, установив в качестве элемента питания для своего изобретения. Мощность артефакта оказалась столь огромной, что вся четвёрка мгновенно перенеслась на 80 миллионов лет назад. Это был опасный период царствования могучих динозавров и логика подсказывала, что нужно скорей убираться оттуда. Но любопытные черепашки не устояли перед искушением увидеть древних исполинов своими глазами, чем заработали себе множество ненужных проблем.
- -• Благодарности:
[url=profile.php?mode=viewprofile&u=20209060]DARKAN[/url] за сведение дубляжа.
[url=profile.php?mode=viewprofile&u=36600407]T-M-N-T[/url] за сведение многоголосого перевода, подготовка видеоряда.-• Качество: HDTVRip
• Формат: AVI
• Видео: XviD, 720x400 (16:9), 23.976 fps, 1762 kbps
• Аудио #1: AC3, 48 kHz, 2 ch, 192 kbps SDI Media, Nickelodeon
• Аудио #2: AC3, 48 kHz, 2 ch, 192 kbps ZM-Show
• Аудио #3: AC3, 48 kHz, 2 ch, 192 kbps English
• ✘ полностью отсутствует реклама
-

Подробные технические данные

GeneralFormat : AVIFile size : 745 MiBDuration : 44 minOverall bit rate : 2 357 kb/sWriting application : VirtualDubMod 1.5.10.3 (build 2550/release)Writing library : VirtualDubMod build 2550/release
VideoID : 0Format : MPEG-4 VisualFormat profile : Advanced Simple@L5Format settings, BVOP : 2Format settings, QPel : NoFormat settings, GMC : No warppointsFormat settings, Matrix : CustomCodec ID : XVIDCodec ID/Hint : XviDDuration : 44 minBit rate : 1 762 kb/sWidth : 720 pixelsHeight : 400 pixelsDisplay aspect ratio : 16:9Frame rate : 23.976 (23976/1000) FPSColor space : YUVChroma subsampling : 4:2:0Bit depth : 8 bitsScan type : ProgressiveCompression mode : LossyBits/(Pixel*Frame) : 0.255Stream size : 557 MiB (75%)Writing library : XviD 1.2.1 (UTC 2008-12-04)
Audio #1ID : 1Format : AC-3Format/Info : Audio Coding 3Mode extension : CM (complete main)Format settings, Endianness : BigCodec ID : 2000Duration : 44 minBit rate mode : ConstantBit rate : 192 kb/sChannel(s) : 2 channelsChannel positions : Front: L RSampling rate : 48.0 kHzFrame rate : 31.250 FPS (1536 spf)Compression mode : LossyStream size : 60.7 MiB (8%)Alignment : Split accross interleavesInterleave, duration : 42 ms (1.00 video frame)Interleave, preload duratio : 500 ms
Audio #2ID : 2Format : AC-3Format/Info : Audio Coding 3Mode extension : CM (complete main)Format settings, Endianness : BigCodec ID : 2000Duration : 44 minBit rate mode : ConstantBit rate : 192 kb/sChannel(s) : 2 channelsChannel positions : Front: L RSampling rate : 48.0 kHzFrame rate : 31.250 FPS (1536 spf)Compression mode : LossyStream size : 60.7 MiB (8%)Alignment : Split accross interleavesInterleave, duration : 42 ms (1.00 video frame)Interleave, preload duratio : 500 ms
Audio #3ID : 3Format : AC-3Format/Info : Audio Coding 3Mode extension : CM (complete main)Format settings, Endianness : BigCodec ID : 2000Duration : 44 minBit rate mode : ConstantBit rate : 192 kb/sChannel(s) : 2 channelsChannel positions : Front: L RSampling rate : 48.0 kHzFrame rate : 31.250 FPS (1536 spf)Compression mode : LossyStream size : 60.7 MiB (8%)Alignment : Split accross interleavesInterleave, duration : 42 ms (1.00 video frame)Interleave, preload duratio : 500 ms

-
-

_________________
Показать сообщения:    

Текущее время: Сегодня 23:17

Часовой пояс: GMT



Вы не можете начинать темы
Вы не можете отвечать на сообщения
Вы не можете редактировать свои сообщения
Вы не можете удалять свои сообщения
Вы не можете голосовать в опросах
Вы не можете прикреплять файлы к сообщениям
Вы не можете скачивать файлы