Важное объявление!
У Нас Все раздачи мультитрекерные, при нуле пиров в релизах, можете смело вставать на закачку!
 
Автор Сообщение

HUNTER

Стаж:
4 года 4 месяца
Сообщений:
56829

Репутация: 101

[+] [-]
Вне форума [Профиль] [ЛС]

Макс Стил. Гнев Макино / Max Steel. The Wrath of Makino
Страна: США, Nerd Corps Entertainment,
Жанр: Мультфильм, приключения, семейный, детский
Продолжительность: 00:41:23
Год выпуска: 2015
Перевод: Профессиональный (дублированный)
Русские субтитры: нет
Режиссёр: Жерени Бровн / Jeremy Brown
Описание: Храбрый воин Макс Стилл сражается с главным злодеем Вселенной. Кто победит? Макино — самый опасный пришелец во всей Вселенной, ответственный за разрушение множества планет. Он создал инопланетную расу ультралинков и мечтает поглотить нашу Землю. Этот смертоносный злодей — давний противник Макса Стилла. Предыдущие столкновения отважного Макса с Макино, к счастью, заканчивались поражением пришельца. Но злодей снова появился на Земле с коварным планом. Неожиданно вернувшись, Макино заявил, что место вожака ультралинков свободно. Чтобы стать главарем инопланетной расы, претенденты должны проникнуть в разум Макино. Макс выигрывает соревнование, но ситуация становится опасной, когда он сам попадает под контроль сильного соперника...
Семпл: http://sendfile.su/1163226
Качество: SATRip
Формат: AVI
Видео: Xvid 720x400 25fps 2 100 Kbps
Аудио: AC3 48000Hz stereo 192kbps
Субтитры: отсутствуют

Подробные технические данные

C:\Users\Dmitriy\Documents\Гнев Макино.2015.XviD.SATRip.avi General Complete name : C:\Users\Dmitriy\Documents\Гнев Макино.2015.XviD.SATRip.avi Format : AVI Format/Info : Audio Video Interleave File size : 682 MiB Duration : 41mn 23s Overall bit rate : 2 302 Kbps Director : SATRip by Thunder Writing application : VirtualDubMod 1.5.10.3 | www.virtualdub-fr.org || (build 2550/release) Original source form/Name : Cartoon Video #0 ID : 0 Format : MPEG-4 Visual Format profile : Advanced Simple@L5 Format settings, BVOP : Yes Format settings, QPel : No Format settings, GMC : No warppoints Format settings, Matrix : Default (H.263) Codec ID : XVID Codec ID/Hint : XviD Duration : 41mn 23s Bit rate : 2 100 Kbps Width : 720 pixels Height : 400 pixels Display aspect ratio : 16:9 Frame rate : 25.000 fps Color space : YUV Chroma subsampling : 4:2:0 Bit depth : 8 bits Scan type : Progressive Bits/(Pixel*Frame) : 0.292 Stream size : 622 MiB (91%) Writing library : XviD 1.2.1 (UTC 2008-12-04) Audio #1 ID : 1 Format : AC-3 Format/Info : Audio Coding 3 Mode extension : CM (complete main) Codec ID : 2000 Duration : 41mn 23s Bit rate mode : Constant Bit rate : 192 Kbps Channel(s) : 2 channels Channel positions : Front: L R Sampling rate : 48.0 KHz Bit depth : 16 bits Stream size : 56.9 MiB (8%) Alignment : Split accross interleaves Interleave, duration : 40 ms (1.00 video frame) Interleave, preload duration : 500 ms

Скриншоты



_________________
Показать сообщения:    

Текущее время: Сегодня 12:18

Часовой пояс: GMT



Вы не можете начинать темы
Вы не можете отвечать на сообщения
Вы не можете редактировать свои сообщения
Вы не можете удалять свои сообщения
Вы не можете голосовать в опросах
Вы не можете прикреплять файлы к сообщениям
Вы не можете скачивать файлы