Важное объявление!
У Нас Все раздачи мультитрекерные, при нуле пиров в релизах, можете смело вставать на закачку!
 
Автор Сообщение

mihis

[Профиль] [ЛС]

Майские звезды
Год выпуска: 1959
Страна: СССР, Чехословакия, киностудия им. М. Горького, Filmové Studio Barrandov
Жанр: Драма, военный
Продолжительность: 01:27:42
Перевод: Не требуется
Субтитры: Нет
Режиссер: Станислав Ростоцкий
В ролях: Александр Ханов, Миша Станинец, Вячеслав Тихонов, Яна Брейхова, Михаил Пуговкин, Николай Крючков, Леонид Быков, Юрий Белов, Олег Голубицкий, Николай Довженко, Леонид Чубаров, Зденек Дите, Яна Дитетова, Франтишек Кройцман, Милош Недбал, Ладислав Пешек, Иржина Била, Иржина Богдалова, Франтишек Вноучек, Мария Ежкова, Вера Календова, Владимир Клеменс, Богуслав Купшовский, Марта Майева, Геда Маркова, Отто Мотычка, Мария Надомлейнска, Богуш Рендл, Вацлав Трегл, Иозеф Шидлиховский, Карел Эффа, Йиржи Вондрович, Валентин Зубков, Валентин Кнор, Любомир Костелка, Сватоплук Майер, Мирко Чех
Описание: Май 1945 года. В предместьях Праги простые люди встречают советских солдат-освободителей со слезами радости на глазах. В первые дни затишья кто-то с грустью вспоминает о довоенной жизни; кто-то нежданно встречает свою любовь; кто-то возвращается из вражеских застенков, с надеждой смотря в будущее; а кто-то, пересев из танка в чешский трамвайчик, с теплотой вспоминает свое ремесло вагоновожатого… В эти дни все, кто выжил в пожаре Великой Войны, дают клятву вечно хранить мир на Земле, чтя память тех, кто отдал свою жизнь за простое человеческое счастье.

Качество: DVDRip
Формат: AVI
Видео кодек: XviD
Аудио кодек: AC3
Видео: 720x512 (1.41:1), 25 fps, XviD build 47 ~1836 kbps avg, 0.20 bit/pixel
Аудио: 48 kHz, AC3 Dolby Digital, 3/2 (L,C,R,l,r) + LFE ch, ~384 kbps

MediaInfo

Complete name : D:\Video\Mayskie_zvezdi.avi
Format : AVI
Format/Info : Audio Video Interleave
File size : 1.37 GiB
Duration : 1h 27mn
Overall bit rate : 2 230 Kbps
Writing application : VirtualDubMod 1.5.10.2 (build 2540/release)
Writing library : VirtualDubMod build 2540/release
Video
ID : 0
Format : MPEG-4 Visual
Format profile : Advanced Simple@L5
Format settings, BVOP : 1
Format settings, QPel : No
Format settings, GMC : No warppoints
Format settings, Matrix : Custom
Codec ID : XVID
Codec ID/Hint : XviD
Duration : 1h 27mn
Bit rate : 1 837 Kbps
Width : 720 pixels
Height : 512 pixels
Display aspect ratio : 1.406
Frame rate : 25.000 fps
Color space : YUV
Chroma subsampling : 4:2:0
Bit depth : 8 bits
Scan type : Progressive
Compression mode : Lossy
Bits/(Pixel*Frame) : 0.199
Stream size : 1.13 GiB (82%)
Writing library : XviD 1.2.0.dev47 (UTC 2006-11-01)
Audio
ID : 1
Format : AC-3
Format/Info : Audio Coding 3
Mode extension : CM (complete main)
Format settings, Endianness : Big
Codec ID : 2000
Duration : 1h 27mn
Bit rate mode : Constant
Bit rate : 384 Kbps
Channel(s) : 6 channels
Channel positions : Front: L C R, Side: L R, LFE
Sampling rate : 48.0 KHz
Bit depth : 16 bits
Compression mode : Lossy
Stream size : 241 MiB (17%)
Alignment : Split accross interleaves
Interleave, duration : 40 ms (1.00 video frame)
Interleave, preload duration : 500 ms
Источник
 
Показать сообщения:    

Текущее время: Сегодня 17:52

Часовой пояс: GMT



Вы не можете начинать темы
Вы не можете отвечать на сообщения
Вы не можете редактировать свои сообщения
Вы не можете удалять свои сообщения
Вы не можете голосовать в опросах
Вы не можете прикреплять файлы к сообщениям
Вы не можете скачивать файлы