Важное объявление!
У Нас Все раздачи мультитрекерные, при нуле пиров в релизах, можете смело вставать на закачку!
 
Автор Сообщение

HUNTER

Стаж:
4 года 4 месяца
Сообщений:
56734

Репутация: 101

[+] [-]
Вне форума [Профиль] [ЛС]

Майор«Майор - просто человек»-
Страна: Россия
Жанр: драма, криминал
Год выпуска: 2013
Продолжительность: 01:39:21-Перевод: Не требуется
Cубтитры: English-Режиссер: Юрий Быков
В ролях: Денис Шведов, Ирина Низина, Юрий Быков, Дмитрий Куличков, Кирилл Полухин, Борис Невзоров, Илья Исаев, Владислав Толдыков, Евгений Кочетков, Павел Басов-Описание: В день долгожданных родов своей жены майор полиции Сергей Соболев мчится в роддом вне себя от счастья. На скользкой зимней дороге он насмерть сбивает семилетнего мальчика на глазах у несчастной матери. Превышение скорости, неосторожность и пешеходный переход — доказательства очевидны, как и нежелание молодого отца угодить за решетку. Майор использует свое служебное положение, чтобы оправдать себя… Сам того не желая, он запускает целую череду смертей, остановить которую решится слишком поздно.-IMDB | КиноПоиск | Сэмпл-Качество видео: BDRip 1080p | исх. Майор (2013) Blu-ray 1080p AVC DTS-HD 5.1 - HDCLUB
Формат видео: MKV-Видео: 1920x802 at 24.000 fps (True24p), x264@L4.1, crf, ~12230 kbps avg
Аудио: 48 kHz/16-bit, DTS, 3/2 (L,C,R,l,r) + LFE ch, ~1509.00 kbps avg | Не требуется-Формат субтитров: softsub (*.srt)
Навигация по главам: Присутствует-

MediaInfo

General
Unique ID : 253293187221633822102592055414299647287 (0xBE8E7E4F53DBC9789D1EC7B6D9455D37)
Complete name : C:\MaJor.2013.1080p.BluRay.HDCLUB.mkv
Format : Matroska
Format version : Version 2
File size : 9.54 GiB
Duration : 1h 39mn
Overall bit rate : 13.7 Mbps
Movie name : MaJor (2013) - Release for HDCLUB
Encoded date : UTC 2013-12-07 21:19:38
Writing application : mkvmerge v5.5.0 ('Healer') built on Apr 6 2012 21:43:24
Writing library : libebml v1.2.3 + libmatroska v1.3.0
Video
ID : 1
Format : AVC
Format/Info : Advanced Video Codec
Format profile : High@L4.1
Format settings, CABAC : Yes
Format settings, ReFrames : 4 frames
Codec ID : V_MPEG4/ISO/AVC
Duration : 1h 39mn
Bit rate : 12.0 Mbps
Width : 1 920 pixels
Height : 802 pixels
Display aspect ratio : 2.40:1
Frame rate mode : Constant
Frame rate : 24.000 fps
Color space : YUV
Chroma subsampling : 4:2:0
Bit depth : 8 bits
Scan type : Progressive
Bits/(Pixel*Frame) : 0.324
Stream size : 8.30 GiB (87%)
Title : MaJor (2013) - Release for HDCLUB
Writing library : x264 core 138 r2358 9e941d1
Encoding settings : cabac=1 / ref=4 / deblock=1:-3:-3 / analyse=0x3:0x133 / me=tesa / subme=11 / psy=1 / psy_rd=1.05:0.00 / mixed_ref=1 / me_range=32 / chroma_me=1 / trellis=2 / 8x8dct=1 / cqm=0 / deadzone=21,11 / fast_pskip=0 / chroma_qp_offset=-2 / threads=6 / lookahead_threads=1 / sliced_threads=0 / nr=0 / decimate=1 / interlaced=0 / bluray_compat=0 / constrained_intra=0 / bframes=7 / b_pyramid=2 / b_adapt=2 / b_bias=0 / direct=1 / weightb=1 / open_gop=0 / weightp=2 / keyint=240 / keyint_min=24 / scenecut=40 / intra_refresh=0 / rc_lookahead=60 / rc=crf / mbtree=0 / crf=16.8 / qcomp=0.60 / qpmin=0 / qpmax=69 / qpstep=4 / vbv_maxrate=62500 / vbv_bufsize=78125 / crf_max=0.0 / nal_hrd=none / ip_ratio=1.30 / pb_ratio=1.15 / aq=2:0.90
Language : Russian
Default : Yes
Forced : No
Audio
ID : 2
Format : DTS
Format/Info : Digital Theater Systems
Mode : 16
Format settings, Endianness : Big
Codec ID : A_DTS
Duration : 1h 39mn
Bit rate mode : Constant
Bit rate : 1 509 Kbps
Channel count : 6 channels
Channel positions : Front: L C R, Side: L R, LFE
Sampling rate : 48.0 KHz
Bit depth : 16 bits
Compression mode : Lossy
Stream size : 1.05 GiB (11%)
Title : Original [BD RUS]
Language : Russian
Default : Yes
Forced : No
Text
ID : 3
Format : UTF-8
Codec ID : S_TEXT/UTF8
Codec ID/Info : UTF-8 Plain Text
Language : English
Default : Yes
Forced : No
Menu
00:00:00.000 : ru:00:00:00.000
00:00:41.000 : ru:00:00:41.000
00:08:35.583 : ru:00:08:35.583
00:23:31.875 : ru:00:23:31.875
00:29:56.750 : ru:00:29:56.750
00:44:46.083 : ru:00:44:46.083
01:02:40.875 : ru:01:02:40.875
01:12:17.667 : ru:01:12:17.667
01:17:41.958 : ru:01:17:41.958

x264 log

raw [info]: 1920x802p 1:1 @ 24/1 fps (cfr)
x264 [info]: using SAR=1/1
x264 [info]: using cpu capabilities: MMX2 SSE2Fast SSSE3 SSE4.2 AVX
x264 [info]: profile High, level 4.1
x264 [info]: frame I:770 Avg QP:13.57 size:136382
x264 [info]: frame P:30392 Avg QP:14.94 size: 82631
x264 [info]: frame B:111906 Avg QP:16.21 size: 58047
x264 [info]: consecutive B-frames: 2.0% 3.3% 6.2% 14.8% 14.1% 47.1% 10.3% 2.3%
x264 [info]: mb I I16..4: 7.8% 74.8% 17.4%
x264 [info]: mb P I16..4: 3.1% 39.6% 7.1% P16..4: 18.7% 20.2% 5.9% 0.7% 0.0% skip: 4.5%
x264 [info]: mb B I16..4: 1.7% 13.1% 1.5% B16..8: 32.3% 21.4% 4.2% direct:15.1% skip:10.8% L0:44.3% L1:41.7% BI:14.1%
x264 [info]: 8x8 transform intra:79.9% inter:57.9%
x264 [info]: coded y,uvDC,uvAC intra: 79.4% 67.4% 29.8% inter: 56.3% 42.2% 3.5%
x264 [info]: i16 v,h,dc,p: 17% 22% 9% 52%
x264 [info]: i8 v,h,dc,ddl,ddr,vr,hd,vl,hu: 15% 12% 19% 8% 8% 9% 8% 10% 10%
x264 [info]: i4 v,h,dc,ddl,ddr,vr,hd,vl,hu: 36% 16% 23% 3% 4% 5% 5% 4% 4%
x264 [info]: i8c dc,h,v,p: 34% 36% 21% 9%
x264 [info]: Weighted P-Frames: Y:1.9% UV:1.3%
x264 [info]: ref P L0: 51.7% 8.6% 23.9% 15.0% 0.8% 0.0%
x264 [info]: ref B L0: 86.0% 11.1% 2.8%
x264 [info]: ref B L1: 91.0% 9.0%
x264 [info]: kb/s:12228.70
encoded 143068 frames, 1.59 fps, 12228.70 kb/s

Дополнительно

Сохранены оригинальные чаптеры как на Blu-Ray
by Electr0man

Скриншоты


_________________
Показать сообщения:    

Текущее время: Сегодня 09:46

Часовой пояс: GMT



Вы не можете начинать темы
Вы не можете отвечать на сообщения
Вы не можете редактировать свои сообщения
Вы не можете удалять свои сообщения
Вы не можете голосовать в опросах
Вы не можете прикреплять файлы к сообщениям
Вы не можете скачивать файлы